[ Сегодня идет свободное скачивание без начисления Download ]


Статистика раздачи
Нет
 
   
 
Top  
 
 
Город мастеров Жанр: сказка
Год выпуска: 1965
Продолжительность: 01:19:14
Режиссёр: Владимир Бычков
В ролях: Георгий Лапето (озвучание - Игорь Ясулович), Марианна Вертинская, Лев Лемке, Савелий Крамаров (озвучание - Георгий Штиль), Алексей Барановский, Вася Бычков, Зиновий Гердт, Леонид Каневский, Игорь Комаров, Владимир Козлов, Олег Каравайчук, Владимир Кремена, Роберт Святополк-Мирский, Карп Мукасьян, Миколас Орбакас, Георгий Тейх, Елизавета Уварова, Роман Филиппов, Валерий Носик, Николай Харитонов, Юрий Харченко, Павел Шпрингфельд, Виталий Щенников, Станислав Щукин, Андрей Юренев, Игорь Ясулович, Слава Цюпа, Елена Цорн
Описание: Был некогда на земле старинный вольный город, называвшийся Городом мастеров, потому что люди, которые в нём жили, умели делать всё на свете. Это были настоящие мастера своего дела. И жил в этом городе метельщик (или, говоря современным языком, - дворник) Жильберт по прозвищу Караколь (что значит "улитка"), которого любили все жители, несмотря на то, что был он горбат. Его любили, потому что был он добр, весел, умён, красив и отважен. В него была влюблена и золотошвейка Вероника, дочь мастера Фирена, первая красавица города. Но однажды обрушилось великое несчастье - иноземные солдаты под предводительством герцога де Маликорна напали нежданно-негаданно. Силой и жестокостью овладели они вольным городом, а тех, кто мог поднять против них меч, казнили, изгнали в леса или запрятали в Башню молчания. С тех пор тихо и пустынно стало на улицах. Люди перестали смеяться, плясать, петь веселые песни. Все со страхом оглядывались на замок, где, как сыч в дупле, жил сам герцог, который издавал жестокие приказы о казнях и штрафах. Но какой он из себя - никто не знал. Ни один житель города не видел его в лицо...
Доп. информация: По мотивам пьесы Тамары Габбе "Город мастеров, или Сказка о двух горбунах".
Сценарий: Николай Эрдман
Операторы: Михаил Ардабьевский, Александр Княжинский
Художник: Александр Бойм
Композитор: Олег Каравайчук
Стихи: Самуил Маршак, Зиновий Гердт
Вокал: Марианна Вертинская, Георгий Лапето (дуэт Вероники и Караколя), Савелий Крамаров, Георгий Штиль (песенка Клик-Кляка)
Награды: гран-при за лучший фильм для детей и юношества на II ВКФ в Киеве (1966); дипломы Союза кинематографистов СССР художнику А.Бойму и режиссёру В.Бычкову; гран-при КФ республик Закавказья, Прибалтики и Украины (Вильнюс, 1966)
Ограничения на просмотр: для любой зрительской аудитории

Афиша

Интересные факты

  • Фильм включён журналом «Искусство кино» в число лучших детских фильмов за сто лет существования кинематографа.
  • Первая и единственная главная роль в кино актера Георгия Лапето. Нынче он выглядит вот так:

    скрытый текст

Об исходнике и кропе

Исходный DVD - некачественный трансфер из PAL в NTSC. У меня есть оба диска. Самое интересное, что тот, который в формате PAL, имеет продолжительность 01:19:11. А тот, который NTSC, - 01:19:12. Поэтому при рипе сие изделие не поддавалось никакому деинтерлейсу, всё равно изображение двоилось. Помогло только понижение частоты кадров до 25 fps.
Черная рамка в исходнике весьма странная. В начале фильма она выглядит вот так:

скрытый текст

В середине - вот так:

скрытый текст

В конце фильма - вот так:

скрытый текст

То есть, мало того, что верхняя кромка перекошена, перекос этот от начала к концу фильма увеличивается в ширину по правой стороне кадра. Поэтому был произведен кроп, по возможности, минимально затрагивающий полезную площадь кадра, и остатки верхней черной рамки кое-где имеют место быть.
Качество видео: DVDRip
Формат видео: AVI
Видео: 640x480 (1.33:1), 25 fps, XviD 1.2.1, 2170 kbps avg, 0.28 bit/pixel
Аудио: 48 kHz, AC3 Dolby Digital, 3/2 (L,C,R,l,r) + LFE ch, 448.00 kbps avg

MediaInfo

Полное имя : Gorod masterov.avi
Формат : AVI
Формат/Информация : Audio Video Interleave
Размер файла : 1,45 Гбайт
Продолжительность : 1 ч. 19 м.
Общий поток : 2628 Кбит/сек
Программа кодирования : VirtualDubMod 1.5.10.3 (build 2550/release)
Библиотека кодирования : VirtualDubMod build 2550/release
Видео
Идентификатор : 0
Формат : MPEG-4 Visual
Профиль формата : Advanced [email protected]
Параметр BVOP формата : 2
Параметр QPel формата : Нет
Параметр GMC формата : Без точки перехода
Параметр матрицы формата : Выборочная
Идентификатор кодека : XVID
Идентификатор кодека/Подсказка : XviD
Продолжительность : 1 ч. 19 м.
Битрейт : 2170 Кбит/сек
Ширина : 640 пикселей
Высота : 480 пикселей
Соотношение сторон : 4:3
Частота кадров : 25,000 кадров/сек
Цветовое пространство : YUV
Субдискретизация насыщенности : 4:2:0
Битовая глубина : 8 бит
Тип развёртки : Прогрессивная
Метод сжатия : С потерями
Бит/(Пиксели*Кадры) : 0.283
Размер потока : 1,20 Гбайт (83%)
Библиотека кодирования : XviD 1.2.1 (UTC 2008-12-04)
Аудио
Идентификатор : 1
Формат : AC-3
Формат/Информация : Audio Coding 3
Расширение режима : CM (complete main)
Параметр Endianness формата : Big
Идентификатор кодека : 2000
Продолжительность : 1 ч. 19 м.
Вид битрейта : Постоянный
Битрейт : 448 Кбит/сек
Каналы : 6 каналов
Расположение каналов : Front: L C R, Side: L R, LFE
Частота : 48,0 КГц
Битовая глубина : 16 бит
Метод сжатия : С потерями
Размер потока : 254 Мбайт (17%)
Выравнивание : Разделение по промежуткам
Продолжительность промежутка : 40 мс. (1,00 видеокадр)
Время предзагрузки промежутка : 500 мс.

Скриншоты

[Цитировать]



Показать сообщения:    

Текущее время: 06-Дек 03:53

Часовой пояс: UTC + 3


Вы не можете начинать темы
Вы не можете отвечать на сообщения
Вы не можете редактировать свои сообщения
Вы не можете удалять свои сообщения
Вы не можете голосовать в опросах
Вы не можете прикреплять файлы к сообщениям
Вы не можете скачивать файлы

!ВНИМАНИЕ!
Сайт не предоставляет электронные версии произведений, а занимается лишь коллекционированием и каталогизацией ссылок, присылаемых и публикуемых на форуме нашими читателями. Если вы являетесь правообладателем какого-либо представленного материала и не желаете, чтобы ссылка на него находилась в нашем каталоге, свяжитесь с нами, и мы незамедлительно удалим ее. Файлы для обмена на трекере предоставлены пользователями сайта, и администрация не несет ответственности за их содержание. Просьба не заливать файлы, защищенные авторскими правами, а также файлы нелегального содержания!