[ Today is free to download without increasing Download ]

DL-List and Torrent activity
Печальный горн
Жанр: детский
Год выпуска: 1982
Продолжительность: 01:11:43
Режиссёр: Давид Кобахидзе
В ролях: Джемал Сужашвили, Ладо Габашвили, Георгий Чичинадзе, Ираклий Хизанишвили, Георгий Гегечкори, Карло Саканделидзе, Кетеван Эсаиашвили, Васо Хахуташвили, Зейнаб Боцвадзе, Марина Тбилели, Бондо Гогинава, Иванэ Иантбелидзе, Зураб (Зура) Чхаидзе (II), Гиа Парадашвили
Описание: Мальчики Лука и Бачо живут и учатся в интернате. У обоих нет родителей. Лука прекрасно рисует. Но, когда профессиональный художник Гоги Карсанидзе усыновляет его, мальчик возвращается в интернат, так как не может жить без друга Бачо...
Доп. информация: Сценаристы: Давид Кобахидзе, Зураб (Зура) Чхаидзе (II)
Оператор: Виктор Андриевский
Композитор: Нодар Мамисашвили
Художник: Александр Джаншиев
Сэмпл: http://multi-up.com/757774
Качество видео: TVRip
Формат видео: AVI
Видео: 400 MB, 780 Kbps, 25.0 fps, 720*544 (4:3), XVID = XVID Mpeg-4, Supported
Аудио: 62 MB, 121 Kbps, 44100 Hz, 2 channels, 0x55 = Lame MP3, Supported


Complete name : C:\Users\user020810\Downloads\Pechalni gorn.avi
Format : AVI
Format/Info : Audio Video Interleave
File size : 463 MiB
Duration : 1h 11mn
Overall bit rate mode : Variable
Overall bit rate : 902 Kbps
Writing application : MEncoder r33883
Writing library : MPlayer
ID : 0
Format : MPEG-4 Visual
Format profile : Simple@L3
Format settings, BVOP : No
Format settings, QPel : No
Format settings, GMC : No warppoints
Format settings, Matrix : Default (H.263)
Codec ID : XVID
Codec ID/Hint : XviD
Duration : 1h 11mn
Bit rate : 768 Kbps
Width : 720 pixels
Height : 544 pixels
Display aspect ratio : 4:3
Frame rate : 25.000 fps
Color space : YUV
Chroma subsampling : 4:2:0
Bit depth : 8 bits
Scan type : Progressive
Compression mode : Lossy
Bits/(Pixel*Frame) : 0.078
Stream size : 394 MiB (85%)
Writing library : XviD 63
ID : 1
Format : MPEG Audio
Format version : Version 1
Format profile : Layer 3
Mode : Joint stereo
Mode extension : MS Stereo
Codec ID : 55
Codec ID/Hint : MP3
Duration : 1h 11mn
Bit rate mode : Variable
Bit rate : 122 Kbps
Channel(s) : 2 channels
Sampling rate : 44.1 KHz
Compression mode : Lossy
Stream size : 62.5 MiB (14%)
Alignment : Aligned on interleaves
Interleave, duration : 26 ms (0.65 video frame)
Interleave, preload duration : 496 ms

Скриншот c названием фильма



Display posts:    

Current time is: 26-Oct 22:19

All times are UTC + 3

You cannot post new topics in this forum
You cannot reply to topics in this forum
You cannot edit your posts in this forum
You cannot delete your posts in this forum
You cannot vote in polls in this forum
You cannot attach files in this forum
You cannot download files in this forum

The site does not give electronic versions of products, and is engaged only in a collecting and cataloguing of the references sent and published at a forum by our readers. If you are the legal owner of any submitted material and do not wish that the reference to it was in our catalogue, contact us and we shall immediately remove her. Files for an exchange on tracker are given by users of a site, and the administration does not bear the responsibility for their maintenance. The request to not fill in the files protected by copyrights, and also files of the illegal maintenance!