[ Сегодня идет свободное скачивание без начисления Download ]


Статистика раздачи
Нет
 
   
 
Top  
 
 
-Айболит-66--Жанр: музыкальный, комедия
Год выпуска: 1966
Продолжительность: 01:33:36--Режиссер: Ролан Быков--В ролях:
Олег Ефремов, Ролан Быков, Лидия Князева, Евгений Васильев, Фрунзе Мкртчян, Алексей Смирнов, Гурген Джанибекян, Леонид Енгибаров, Фауста Иванова, Зоя Исаева, Людмила Карауш, Виталий Комиссаров, Геннадий Крашенинников, Юрий Мартынов, Раднэр Муратов, Владимир Пицек, Владимир Протасенко, Виктория Радунская, Илья Рутберг, Георгиос Совчис, Виолетта Хуснулова, Светлана Швайко, Игорь Ясулович, Валентин Грачёв, Руслан Ахметов, Борис Веселов, Людмила Марченко, Иван Савкин, Константин Худяков, Геннадий Юдин, Владимир Евстафьев
--Описание:Эксцентрическая музыкальная комедия по мотивам известной сказки К.И. Чуковского с элементами цирка и пантомимы, остроумная и изобретательная, о добром докторе Айболите, обезьянке Чичи, собаке Авве, разбойнике Бармалее и его помощниках. Этот яркий остроумный фильм весело и ненавязчиво рассказывает о добре и зле, о справедливости и настоящей дружбе. Рассказывает не только детям, но и взрослым.--Доп. информация:-
-
-Семпл Рип совместим с бытовыми DVD-проигрывателями.--Качество видео: DVDRip (Исходник: )
Формат видео: AVI
Видео: XviD; 688x304 (1:2.26); 975 Kbps; 25 fps; 0.186 bpp
Аудио: MPEG-1 Audio Layer 3; 48.0 KHz; 128 Kbps; CBR; 2 ch-
-

Mediainfo

General
Complete name : \Aybolit-66_(1966).DVDRip.XviD.mp3-All.Films-RG.avi
Format : AVI
Format/Info : Audio Video Interleave
File size : 745 MiB
Duration : 1h 33mn
Overall bit rate : 1 113 Kbps
Movie name : Айболит-66 (1966) DVDRip [All.Films][RG]
Director : <VIRUS> [rutracker.org]
Writing application : VirtualDubMod 1.5.10.3 (build 2550/release)
Video
ID : 0
Format : MPEG-4 Visual
Format profile : Advanced [email protected]
Format settings, BVOP : 2
Format settings, QPel : No
Format settings, GMC : No warppoints
Format settings, Matrix : Custom
Codec ID : XVID
Codec ID/Hint : XviD
Duration : 1h 33mn
Bit rate : 975 Kbps
Width : 688 pixels
Height : 304 pixels
Display aspect ratio : 2.25:1
Frame rate : 25.000 fps
Color space : YUV
Chroma subsampling : 4:2:0
Bit depth : 8 bits
Scan type : Progressive
Compression mode : Lossy
Bits/(Pixel*Frame) : 0.186
Stream size : 653 MiB (88%)
Writing library : XviD 73
Audio
ID : 1
Format : MPEG Audio
Format version : Version 1
Format profile : Layer 3
Codec ID : 55
Codec ID/Hint : MP3
Duration : 1h 33mn
Bit rate mode : Constant
Bit rate : 128 Kbps
Channel(s) : 2 channels
Sampling rate : 48.0 KHz
Compression mode : Lossy
Stream size : 85.7 MiB (12%)
Alignment : Aligned on interleaves
Interleave, duration : 40 ms (1.00 video frame)
Interleave, preload duration : 504 ms
Writing library : LAME3.99r
Encoding settings : -m s -V 4 -q 0 -lowpass 17 -b 128

Скриншоты


Сравнение

- низкое разрешение кадра (480х272), неверный аспект, недокроп кадра, переменный битрейт звука, ниже качество видео.
в одном разрешении -> http://screenshotcomparison.com/comparison/144224/picture:0
в оригинальном разрешении -> http://screenshotcomparison.com/comparison/144225/picture:0

[Цитировать]



Показать сообщения:    

Текущее время: 04-Дек 02:58

Часовой пояс: UTC + 3


Вы не можете начинать темы
Вы не можете отвечать на сообщения
Вы не можете редактировать свои сообщения
Вы не можете удалять свои сообщения
Вы не можете голосовать в опросах
Вы не можете прикреплять файлы к сообщениям
Вы не можете скачивать файлы

!ВНИМАНИЕ!
Сайт не предоставляет электронные версии произведений, а занимается лишь коллекционированием и каталогизацией ссылок, присылаемых и публикуемых на форуме нашими читателями. Если вы являетесь правообладателем какого-либо представленного материала и не желаете, чтобы ссылка на него находилась в нашем каталоге, свяжитесь с нами, и мы незамедлительно удалим ее. Файлы для обмена на трекере предоставлены пользователями сайта, и администрация не несет ответственности за их содержание. Просьба не заливать файлы, защищенные авторскими правами, а также файлы нелегального содержания!