[ Сегодня идет свободное скачивание без начисления Download ]


Статистика раздачи
Нет
 
   
 
Top  
 
 
Чем дальше в лес... / Into the Woods Информация о фильме
Название: Чем дальше в лес...
Оригинальное название: Into the Woods
Год выхода: 2014
Жанр: мюзикл, фэнтези, комедия, семейный
Режиссер: Роб Маршалл
В ролях: Мэрил Стрип, Эмили Блант, Джеймс Корден, Анна Кендрик, Крис Пайн, Джонни Депп, Дэниэл Хаттлстоун, Кристин Барански, Тэмми Бланчард, Люси Панч
О фильме: Золушка мечтает попасть на бал, Пекарь, когда-то проклятый Ведьмой, и его Жена горюют о том, что у них нет ребенка, Джек хочет, чтобы его корова Беляночка наконец-то дала молоко, его Мать мечтает быть богатой, а Красной Шапочке очень нужен каравай хлеба — гостинец для Бабушки, которая живет в лесу… и, может быть, немного сластей для себя лично.
Наконец, Ведьма, живущая по соседству с Пекарем, мечтает вернуть себе молодость и красоту, которые она утратила по несчастному стечению обстоятельств. Для этого она предлагает Пекарю в обмен на снятие проклятия помочь ей и добыть необходимые составляющие для волшебного напитка: корову, белую, как молоко, плащ, красный как кровь, прядь волос, желтых, как кукуруза, и золотые туфельки…

Выпущено: Walt Disney Pictures, Lucamar Productions
Продолжительность: 02:04:45
Перевод: Дублированный (лицензия)
Файл
Кодек: x264
Качество: BDRip (источник: Blu-ray Disc)
Видео: 1920x804 (2,40:1), 23.976 fps, 11970 kbps
Аудио #1: AC-3, 6 ch, 640 kbps (Rus)
Аудио #2: AC-3, 6 ch, 640 kbps (Eng)
Субтитры: Русские (форс,полные), Английские
Скачать: сэмпл
Скриншоты

MI

General
Unique ID : 195647745200781264469293384664993314355 (0x9330629622F8ED45A71739AF4FAD3633)
Complete name : D:Into.the.Woods.2014.BDRip.1080p.Rus.Eng.mkv
Format : Matroska
Format version : Version 2
File size : 11.5 GiB
Duration : 2h 4mn
Overall bit rate : 13.2 Mbps
Movie name : Чем дальше в лес... / Into the Woods (2014)
Encoded date : UTC 2015-05-02 09:54:14
Writing application : mkvmerge v5.8.0 ('No Sleep / Pillow') built on Sep 2 2012 15:37:04
Writing library : libebml v1.2.3 + libmatroska v1.3.0
Attachements : cover.png / logfile.log
Video
ID : 1
Format : AVC
Format/Info : Advanced Video Codec
Format profile : [email protected]
Format settings, CABAC : Yes
Format settings, ReFrames : 5 frames
Codec ID : V_MPEG4/ISO/AVC
Duration : 2h 4mn
Bit rate : 12.0 Mbps
Width : 1 920 pixels
Height : 804 pixels
Display aspect ratio : 2.40:1
Frame rate mode : Constant
Frame rate : 23.976 fps
Color space : YUV
Chroma subsampling : 4:2:0
Bit depth : 8 bits
Scan type : Progressive
Bits/(Pixel*Frame) : 0.323
Stream size : 10.2 GiB (88%)
Title : Чем дальше в лес... / Into the Woods (2014)
Writing library : x264 core 146 r2538 121396c
Encoding settings : cabac=1 / ref=5 / deblock=1:-3:-3 / analyse=0x3:0x133 / me=umh / subme=11 / psy=1 / psy_rd=1.00:0.00 / mixed_ref=1 / me_range=32 / chroma_me=1 / trellis=2 / 8x8dct=1 / cqm=0 / deadzone=21,11 / fast_pskip=0 / chroma_qp_offset=-2 / threads=12 / lookahead_threads=3 / sliced_threads=0 / nr=0 / decimate=0 / interlaced=0 / bluray_compat=0 / constrained_intra=0 / bframes=10 / b_pyramid=2 / b_adapt=2 / b_bias=0 / direct=3 / weightb=1 / open_gop=0 / weightp=2 / keyint=240 / keyint_min=23 / scenecut=40 / intra_refresh=0 / rc=2pass / mbtree=0 / bitrate=11970 / ratetol=1.0 / qcomp=0.60 / qpmin=0 / qpmax=69 / qpstep=4 / cplxblur=20.0 / qblur=0.5 / ip_ratio=1.40 / pb_ratio=1.30 / aq=1:1.00
Language : English
Default : Yes
Forced : No
Audio #1
ID : 2
Format : AC-3
Format/Info : Audio Coding 3
Mode extension : CM (complete main)
Format settings, Endianness : Big
Codec ID : A_AC3
Duration : 2h 4mn
Bit rate mode : Constant
Bit rate : 640 Kbps
Channel(s) : 6 channels
Channel positions : Front: L C R, Side: L R, LFE
Sampling rate : 48.0 KHz
Bit depth : 16 bits
Compression mode : Lossy
Stream size : 571 MiB (5%)
Title : Дубляж, Blu-ray EUR
Language : Russian
Default : Yes
Forced : No
Audio #2
ID : 3
Format : AC-3
Format/Info : Audio Coding 3
Mode extension : CM (complete main)
Format settings, Endianness : Big
Codec ID : A_AC3
Duration : 2h 4mn
Bit rate mode : Constant
Bit rate : 640 Kbps
Channel(s) : 6 channels
Channel positions : Front: L C R, Side: L R, LFE
Sampling rate : 48.0 KHz
Bit depth : 16 bits
Compression mode : Lossy
Stream size : 571 MiB (5%)
Title : English
Language : English
Default : No
Forced : No
Text #1
ID : 4
Format : UTF-8
Codec ID : S_TEXT/UTF8
Codec ID/Info : UTF-8 Plain Text
Title : Russian (Forced)
Language : Russian
Default : Yes
Forced : No
Text #2
ID : 5
Format : UTF-8
Codec ID : S_TEXT/UTF8
Codec ID/Info : UTF-8 Plain Text
Title : Russian
Language : Russian
Default : No
Forced : No
Text #3
ID : 6
Format : UTF-8
Codec ID : S_TEXT/UTF8
Codec ID/Info : UTF-8 Plain Text
Title : English
Language : English
Default : No
Forced : No
Text #4
ID : 7
Format : UTF-8
Codec ID : S_TEXT/UTF8
Codec ID/Info : UTF-8 Plain Text
Title : English (SDH)
Language : English
Default : No
Forced : No
Text #5
ID : 8
Format : UTF-8
Codec ID : S_TEXT/UTF8
Codec ID/Info : UTF-8 Plain Text
Title : English (SDH Colored)
Language : English
Default : No
Forced : No
Menu
00:00:00.000 : en:Prologue: "Into the Woods"
00:16:24.274 : en:"Cinderella at the Grave"
00:18:02.164 : en:"Hello, Little Girl"
00:21:30.998 : en:Aiming to Lift the Spell
00:26:37.846 : en:Rapunzel
00:28:28.415 : en:Granny's Cottage
00:30:08.765 : en:"I Know Things Now"
00:32:50.969 : en:The Beanstalk
00:33:31.884 : en:"A Very Nice Prince"
00:37:18.027 : en:"Giants in the Sky"
00:40:44.984 : en:Baker and His Wife
00:42:27.127 : en:"Agony"
00:46:13.604 : en:The Forbidden Tower
00:48:53.180 : en:"It Takes Two"
00:54:39.109 : en:"Stay with Me"
00:57:50.925 : en:Chopping Down the Beanstalk
01:00:02.807 : en:"On the Steps of the Palace"
01:03:33.976 : en:Searching for Cinderella
01:08:32.858 : en:A Tear
01:10:14.335 : en:Back to Life
01:14:47.524 : en:Nothing to Fear
01:21:45.567 : en:"Witch's Lament"
01:24:00.827 : en:"Any Moment"
01:29:15.266 : en:"Moments in the Woods"
01:33:29.437 : en:"Your Fault"
01:36:32.995 : en:"Last Midnight"
01:40:53.422 : en:Do Better
01:43:59.149 : en:The Faraway Prince
01:45:49.885 : en:"No One Is Alone"
01:49:38.947 : en:The Giant Attack
01:53:44.984 : en:You Are Not Alone/"Children Will Listen"
01:57:23.828 : en:Finale/Credits

[Цитировать]



Показать сообщения:    

Текущее время: 06-Дек 22:48

Часовой пояс: UTC + 3


Вы не можете начинать темы
Вы не можете отвечать на сообщения
Вы не можете редактировать свои сообщения
Вы не можете удалять свои сообщения
Вы не можете голосовать в опросах
Вы не можете прикреплять файлы к сообщениям
Вы не можете скачивать файлы

!ВНИМАНИЕ!
Сайт не предоставляет электронные версии произведений, а занимается лишь коллекционированием и каталогизацией ссылок, присылаемых и публикуемых на форуме нашими читателями. Если вы являетесь правообладателем какого-либо представленного материала и не желаете, чтобы ссылка на него находилась в нашем каталоге, свяжитесь с нами, и мы незамедлительно удалим ее. Файлы для обмена на трекере предоставлены пользователями сайта, и администрация не несет ответственности за их содержание. Просьба не заливать файлы, защищенные авторскими правами, а также файлы нелегального содержания!