[ Сегодня идет свободное скачивание без начисления Download ]


Статистика раздачи
Нет
 
   
 
Top  
 
 
-Бессмертник. Вера и правда (2015) SATRip- Производство: Украина, Front Cinema Production, канал "Украина"
Жанр: Мелодрама
Режиссер: Дмитрий Гольдман
Актеры: Марина Дьяконенко, Валентин Томусяк, Александр Давыдов (VIII), Александр Заднепровский, Екатерина Тышкевич, Светлана Зельбет, Наталья Калатай, Римма Зюбина, Алексей Вертинский, Елена Турбал, Виктория Литвиненко-Ясиновская, Павел Москаль, Оксана Сташенко, Дмитрий Гаврилов (II), Лариса Руснак, Софья Письман, Елена Еременко (II)
Описание:
В центре сюжета новой авантюрной мелодрамы "Бессмертник" - история жизни простой девушки Нади. Главная героиня - химик по образованию. Она мечтает создавать новые косметические средства. Именно ее работа помогает ей встретиться со своей судьбой - парнем Игорем, в которого она влюблена была еще со студенческих лет. Счастье было так близко, если бы не один случай.

Продолжительность: 12 х ~ 00:44:00
Видеокодек: XviD
Битрейт видео: ~1400 Кбит/с
Размер кадра: 720 x 400
Качество видео: SATRip
Аудиокодек: MP3 2.0
Битрейт аудио: 192 Кбит/с
Вид субтитров: вшитые, неотключамые
Язык субтитров: украинский

MediaInfo

Общее
Полное имя : \Бессмертник.Вера и правда.2015\11.seriya.avi
Формат : AVI
Формат/Информация : Audio Video Interleave
Размер файла : 532 Мбайт
Продолжительность : 46 м.
Общий поток : 1601 Кбит/сек
Программа кодирования : VirtualDubMod 1.5.10.3 | www.virtualdub-fr.org || (build 2550/release)
Библиотека кодирования : VirtualDubMod build 2550/release
Видео
Идентификатор : 0
Формат : MPEG-4 Visual
Профиль формата : Advanced Simple@L5
Параметр BVOP формата : 1
Параметр QPel формата : Нет
Параметр GMC формата : Без точки перехода
Параметр матрицы формата : Default (MPEG)
Идентификатор кодека : XVID
Идентификатор кодека/Подсказка : XviD
Продолжительность : 46 м.
Битрейт : 1400 Кбит/сек
Ширина : 720 пикселей
Высота : 400 пикселей
Соотношение сторон : 16:9
Частота кадров : 25,000 кадров/сек
Цветовое пространство : YUV
Субдискретизация насыщенности : 4:2:0
Битовая глубина : 8 бит
Тип развёртки : Прогрессивная
Метод сжатия : С потерями
Бит/(Пиксели*Кадры) : 0.194
Размер потока : 465 Мбайт (87%)
Библиотека кодирования : XviD 1.2.1 (UTC 2008-12-04)
Аудио
Идентификатор : 1
Формат : MPEG Audio
Версия формата : Version 1
Профиль формата : Layer 3
Режим : Joint stereo
Расширение режима : MS Stereo
Идентификатор кодека : 55
Идентификатор кодека/Подсказка : MP3
Продолжительность : 46 м.
Вид битрейта : Постоянный
Битрейт : 192 Кбит/сек
Каналы : 2 канала
Частота : 48,0 КГц
Метод сжатия : С потерями
Размер потока : 63,8 Мбайт (12%)
Выравнивание : Соединение по промежуткам
Продолжительность промежутка : 40 мс. (1,00 видеокадр)
Время предзагрузки промежутка : 504 мс.
Библиотека кодирования : LAME3.99r
Настройки программы : -m j -V 4 -q 2 -lowpass 18.6 -b 192
Скриншоты:
"Бессмертник" на NNM-CLUB

[Цитировать]



Показать сообщения:    

Текущее время: 07-Дек 11:45

Часовой пояс: UTC + 3


Вы не можете начинать темы
Вы не можете отвечать на сообщения
Вы не можете редактировать свои сообщения
Вы не можете удалять свои сообщения
Вы не можете голосовать в опросах
Вы не можете прикреплять файлы к сообщениям
Вы не можете скачивать файлы

!ВНИМАНИЕ!
Сайт не предоставляет электронные версии произведений, а занимается лишь коллекционированием и каталогизацией ссылок, присылаемых и публикуемых на форуме нашими читателями. Если вы являетесь правообладателем какого-либо представленного материала и не желаете, чтобы ссылка на него находилась в нашем каталоге, свяжитесь с нами, и мы незамедлительно удалим ее. Файлы для обмена на трекере предоставлены пользователями сайта, и администрация не несет ответственности за их содержание. Просьба не заливать файлы, защищенные авторскими правами, а также файлы нелегального содержания!