[ Сегодня идет свободное скачивание без начисления Download ]


Статистика раздачи
Нет
 
   
 
Top  
 
 
Истребители [01-12 из 12] (2013) Год выпуска: 2013
Производство: Россия
Жанр: драма, военный
Продолжительность: 00:43:00 / серия
Режиссёр: Алексей Мурадов
В ролях: Екатерина Вилкова, Дмитрий Дюжев, Николай Козак, Любовь Руденко, Олег Фомин, Юрий Яковлев-Суханов, Мария Андреева, Виталий Махов, Денис Варенов, Антон Соколов, Дмитрий Арбенин, Александр Корчагин, Екатерина Рябова, Владимир Большов, Иван Гар, Игорь Арташонов, Дарья Кривцова, Андрей Мясников, Азамат Нигманов, Антон Соколов (II), Сергей Шеховцов, Алексей Каничев, Алексей Потапкин, Денис Константинов, Петр Никищихин, Леонид Орлов, Алексей Секирин, Денис Березин, Петр Рыков, Александр Ананьев, Артём Федотов, Юлия Галина, Александр Барановский
Описание:
СССР. В разгаре Великая Отечественная Война. Молодые летчики Леонид и Борис по прибытии в летную школу узнают, что они зачислены в авиационный полк и в ближайшее время их отправят на фронт.
Первое же боевое задание герои проваливают - Леонид, вместо того чтобы прикрывать штурмовиков, вырывается из строя и идет в атаку на немецкие «мессеры», в результате чего оборонительный строй нарушается, штурмовики остаются без защиты и, попав под огонь немецких истребителей, погибают. Задание провалено. Командуют отступление. Леонида и Бориса отправляют в дивизию, где их ждет трибунал и расстрел. Их уже выводят под конвоем, когда на военный аэродром прилетает командир штурмового отряда и лично ходатайствует о том, чтобы Борис и Леонид вернулись в строй. Теперь нашим героям придется выполнять роль штурмовиков, быть ответственными и бесстрашными и следовать приказам любой сложности без колебаний и страха за свои жизни...- -Качество: DVDRip-AVC (2хDVD9 R5)
Формат: MKV
Видео: [email protected] (16:9), 25.000 fps, H264 ~ 2006 kbps avg, 0.195 bit/pixel
Аудио: 48 kHz, АС3 2 ch, 192 kbps, русский

MediaInfo

Общее
Полное имя : Istrebiteli.2013.O.DVDRip-AVC_[Youtracker]_by_avproh?1.mkv
Формат : Matroska
Версия формата : Version 2
Размер файла : 675 Мбайт
Продолжительность : 42 м.
Общий поток : 2197 Кбит/сек
Дата кодирования : UTC 2013-06-21 15:29:41
Программа кодирования : mkvmerge v5.0.1 ('Es ist Sommer') built on Nov 6 2011 16:23:40
Библиотека кодирования : libebml v1.2.2 + libmatroska v1.3.0
Видео
Идентификатор : 1
Формат : AVC
Формат/Информация : Advanced Video Codec
Профиль формата : [email protected]
Параметр CABAC формата : Да
Параметр ReFrames формата : 11 кадров
Идентификатор кодека : V_MPEG4/ISO/AVC
Продолжительность : 42 м.
Битрейт : 2006 Кбит/сек
Ширина : 720 пикселей
Высота : 572 пикселя
Соотношение сторон : 16:9
Режим частоты кадров : Постоянный
Частота кадров : 25,000 кадров/сек
Цветовое пространство : YUV
Субдискретизация насыщенности : 4:2:0
Битовая глубина : 8 бит
Тип развёртки : Прогрессивная
Бит/(Пиксели*Кадры) : 0.195
Размер потока : 603 Мбайт (89%)
Библиотека кодирования : x264 core 130 r2273 b3065e6
Настройки программы : cabac=1 / ref=11 / deblock=1:-2:-1 / analyse=0x3:0x113 / me=umh / subme=9 / psy=1 / psy_rd=1.00:0.20 / mixed_ref=1 / me_range=32 / chroma_me=1 / trellis=1 / 8x8dct=1 / cqm=0 / deadzone=21,11 / fast_pskip=0 / chroma_qp_offset=-3 / threads=9 / lookahead_threads=1 / sliced_threads=0 / nr=0 / decimate=0 / interlaced=0 / bluray_compat=0 / constrained_intra=0 / bframes=8 / b_pyramid=2 / b_adapt=2 / b_bias=0 / direct=3 / weightb=1 / open_gop=0 / weightp=2 / keyint=250 / keyint_min=25 / scenecut=40 / intra_refresh=0 / rc_lookahead=60 / rc=2pass / mbtree=1 / bitrate=2006 / ratetol=1.0 / qcomp=0.60 / qpmin=0 / qpmax=69 / qpstep=4 / cplxblur=20.0 / qblur=0.5 / ip_ratio=1.40 / aq=1:1.00
Default : Да
Forced : Нет
Аудио
Идентификатор : 2
Формат : AC-3
Формат/Информация : Audio Coding 3
Расширение режима : CM (complete main)
Параметр Endianness формата : Big
Идентификатор кодека : A_AC3
Продолжительность : 42 м.
Вид битрейта : Постоянный
Битрейт : 192 Кбит/сек
Каналы : 2 канала
Расположение каналов : Front: L R
Частота : 48,0 КГц
Битовая глубина : 16 бит
Метод сжатия : С потерями
Размер потока : 59,0 Мбайт (9%)
Default : Да
Forced : Нет

Скриншоты:

[Цитировать]



Показать сообщения:    

Текущее время: 04-Дек 19:21

Часовой пояс: UTC + 3


Вы не можете начинать темы
Вы не можете отвечать на сообщения
Вы не можете редактировать свои сообщения
Вы не можете удалять свои сообщения
Вы не можете голосовать в опросах
Вы не можете прикреплять файлы к сообщениям
Вы не можете скачивать файлы

!ВНИМАНИЕ!
Сайт не предоставляет электронные версии произведений, а занимается лишь коллекционированием и каталогизацией ссылок, присылаемых и публикуемых на форуме нашими читателями. Если вы являетесь правообладателем какого-либо представленного материала и не желаете, чтобы ссылка на него находилась в нашем каталоге, свяжитесь с нами, и мы незамедлительно удалим ее. Файлы для обмена на трекере предоставлены пользователями сайта, и администрация не несет ответственности за их содержание. Просьба не заливать файлы, защищенные авторскими правами, а также файлы нелегального содержания!