[ Сегодня идет свободное скачивание без начисления Download ]


Статистика раздачи
Нет
 
   
 
 
 
-Enigma - MCMXC a.D. (The Complete Album) (2003) DVDRip- Оригинальное название: Enigma - MCMXC a.D. (The Complete Album)
Год выпуска: 2003
Жанр: Видеоклипы
Продолжительность: 00:40:15 + 00:16:28 + 00:16:16-Описание фильма:
Переиздание полной видеоверсии дебютного альбома Enigma - "MCMXC a.D."
Релиз также включает полные версии видео : Sadeness, Mea Culpa, Principles Of Lust и The Rivers of Belief.
16-минутное видео интервью с М. Крету ( язык : немецкий , титры отсутствуют )-TrackList:
I. The Voice Of Enigma
II. Principles Of Lust
A: Sadeness
B: Find Love
C: Sadeness (Reprise)
III. Callas Went Away
IV. Mea Culpa
V. The Voice & The Snake
VI. Knocking On Forbidden Doors
VII. Back To The Rivers Of Belief
A: Way To Eternity
B: Hallelujah
C: The Rivers Of Belief
Full lenght video :
01. Sadeness Part I
02. Mea Culpa Part II
03. Principles Of Lust
04. The Rivers Of Belief
-Видеокодек: MPEG-4 AVC/H.264
Битрейт видео: ~2100 Kbps
Размер кадра: 720x536,747х560
Качество видео: DVDRip
Аудиокодек: АС3 5.1
Битрейт аудио: АС3 48000Hz 6ch cbr 640 Kbps Front: L C R, Side: L R, LFE

Media Info of files

General
Unique ID                   : 185115281571016711364470404591233948717 (0x8B43E8097217CC6BBF02735CD9C65C2D)
Complete name               : Enigma - MCMXC a.D. (The Complete Album) © 2003\01.Enigma - MCMXC a.D..mkv
Format                      : Matroska
Format version              : Version 4 / Version 2
File size                   : 788 MiB
Duration                    : 40mn 15s
Overall bit rate            : 2 738 Kbps
Movie name                  : Enigma - MCMXC a.D. (rip by smithland)
Encoded date                : UTC 2010-02-22 21:41:31
Writing application         : mkvmerge v5.9.0 ('On The Loose')
Writing library             : libebml v1.3.0 + libmatroska v1.4.0
Attachements                : cover.png
Video
ID                          : 1
Format                      : AVC
Format/Info                 : Advanced Video Codec
Format profile              : [url=mailto:High@L4.0]High@L4.0[/url]
Format settings, CABAC      : Yes
Format settings, ReFrames   : 10 frames
Codec ID                    : V_MPEG4/ISO/AVC
Duration                    : 40mn 15s
Bit rate                    : 2 100 Kbps
Width                       : 720 pixels
Height                      : 536 pixels
Display aspect ratio        : 4:3
Frame rate mode             : Constant
Frame rate                  : 25.000 fps
Color space                 : YUV
Chroma subsampling          : 4:2:0
Bit depth                   : 8 bits
Scan type                   : Progressive
Bits/(Pixel*Frame)          : 0.218
Stream size                 : 588 MiB (75%)
Writing library             : x264 core 130 r2273 b3065e6
Encoding settings           : cabac=1 / ref=10 / deblock=1:-2:0 / analyse=0x3:0x133 / me=umh / subme=11 / psy=1 / psy_rd=1.30:0.37 / mixed_ref=1 / me_range=28 / chroma_me=1 / trellis=2 / 8x8dct=1 / cqm=0 / deadzone=21,11 / fast_pskip=0 / chroma_qp_offset=-4 / threads=12 / lookahead_threads=1 / sliced_threads=0 / nr=0 / decimate=0 / interlaced=0 / bluray_compat=0 / constrained_intra=0 / bframes=9 / b_pyramid=2 / b_adapt=1 / b_bias=0 / direct=1 / weightb=1 / open_gop=1 / weightp=2 / keyint=250 / keyint_min=25 / scenecut=40 / intra_refresh=0 / rc_lookahead=50 / rc=abr / mbtree=1 / bitrate=2100 / ratetol=1.0 / qcomp=0.60 / qpmin=0 / qpmax=69 / qpstep=4 / ip_ratio=1.41 / aq=1:1.10
Language                    : English
Default                     : Yes
Forced                      : Yes
Color primaries             : Generic film
Color range                 : Limited
Audio
ID                          : 2
Format                      : AC-3
Format/Info                 : Audio Coding 3
Mode extension              : CM (complete main)
Format settings, Endianness : Big
Codec ID                    : A_AC3
Duration                    : 40mn 15s
Bit rate mode               : Constant
Bit rate                    : 640 Kbps
Channel(s)                  : 6 channels
Channel positions           : Front: L C R, Side: L R, LFE
Sampling rate               : 48.0 KHz
Bit depth                   : 16 bits
Compression mode            : Lossy
Stream size                 : 184 MiB (23%)
Language                    : English
Default                     : Yes
Forced                      : Yes
*****************************************************************
General
Unique ID                   : 216713869316175253088282793198147623927 (0xA30992B1F69AA275BE78FB5D95FC5BF7)
Complete name               : Enigma - MCMXC a.D. (The Complete Album) © 2003\02.Enigma - MCMXC a.D. - Full lenght video.mkv
Format                      : Matroska
Format version              : Version 4 / Version 2
File size                   : 299 MiB
Duration                    : 16mn 28s
Overall bit rate            : 2 536 Kbps
Movie name                  : Enigma - MCMXC a.D.- Full lenght video (rip by smithland)
Encoded date                : UTC 2010-02-22 21:41:31
Writing application         : mkvmerge v5.9.0 ('On The Loose')
Writing library             : libebml v1.3.0 + libmatroska v1.4.0
Attachements                : cover.png
Video
ID                          : 1
Format                      : AVC
Format/Info                 : Advanced Video Codec
Format profile              : [url=mailto:High@L4.0]High@L4.0[/url]
Format settings, CABAC      : Yes
Format settings, ReFrames   : 10 frames
Codec ID                    : V_MPEG4/ISO/AVC
Duration                    : 16mn 28s
Bit rate                    : 2 100 Kbps
Width                       : 720 pixels
Height                      : 560 pixels
Display aspect ratio        : 4:3
Frame rate mode             : Constant
Frame rate                  : 25.000 fps
Color space                 : YUV
Chroma subsampling          : 4:2:0
Bit depth                   : 8 bits
Scan type                   : Progressive
Bits/(Pixel*Frame)          : 0.208
Stream size                 : 240 MiB (80%)
Writing library             : x264 core 130 r2273 b3065e6
Encoding settings           : cabac=1 / ref=10 / deblock=1:-2:0 / analyse=0x3:0x133 / me=umh / subme=11 / psy=1 / psy_rd=1.30:0.37 / mixed_ref=1 / me_range=28 / chroma_me=1 / trellis=2 / 8x8dct=1 / cqm=0 / deadzone=21,11 / fast_pskip=0 / chroma_qp_offset=-4 / threads=12 / lookahead_threads=1 / sliced_threads=0 / nr=0 / decimate=0 / interlaced=0 / bluray_compat=0 / constrained_intra=0 / bframes=9 / b_pyramid=2 / b_adapt=1 / b_bias=0 / direct=1 / weightb=1 / open_gop=1 / weightp=2 / keyint=250 / keyint_min=25 / scenecut=40 / intra_refresh=0 / rc_lookahead=50 / rc=abr / mbtree=1 / bitrate=2100 / ratetol=1.0 / qcomp=0.60 / qpmin=0 / qpmax=69 / qpstep=4 / ip_ratio=1.41 / aq=1:1.10
Language                    : English
Default                     : Yes
Forced                      : Yes
Color primaries             : Generic film
Color range                 : Limited
Audio
ID                          : 2
Format                      : AC-3
Format/Info                 : Audio Coding 3
Mode extension              : CM (complete main)
Format settings, Endianness : Big
Codec ID                    : A_AC3
Duration                    : 16mn 28s
Bit rate mode               : Constant
Bit rate                    : 448 Kbps
Channel(s)                  : 2 channels
Channel positions           : Front: L R
Sampling rate               : 48.0 KHz
Bit depth                   : 16 bits
Compression mode            : Lossy
Stream size                 : 52.8 MiB (18%)
Language                    : English
Default                     : Yes
Forced                      : Yes
********************************************************************
General
Unique ID                   : 201438975548430647290909177818966343973 (0x978BBC49911D3A0BBE19B25CDCCF4125)
Complete name               :Enigma - MCMXC a.D. (The Complete Album) © 2003\M.Cretu - Interview.mkv
Format                      : Matroska
Format version              : Version 4 / Version 2
File size                   : 294 MiB
Duration                    : 16mn 16s
Overall bit rate            : 2 530 Kbps
Movie name                  : M.Cretu - Interview (rip by smithland)
Encoded date                : UTC 2010-02-22 21:41:31
Writing application         : mkvmerge v5.9.0 ('On The Loose')
Writing library             : libebml v1.3.0 + libmatroska v1.4.0
Attachements                : cover.png
Video
ID                          : 1
Format                      : AVC
Format/Info                 : Advanced Video Codec
Format profile              : [url=mailto:High@L4.0]High@L4.0[/url]
Format settings, CABAC      : Yes
Format settings, ReFrames   : 10 frames
Codec ID                    : V_MPEG4/ISO/AVC
Duration                    : 16mn 16s
Bit rate                    : 2 100 Kbps
Width                       : 720 pixels
Height                      : 536 pixels
Display aspect ratio        : 4:3
Frame rate mode             : Constant
Frame rate                  : 25.000 fps
Color space                 : YUV
Chroma subsampling          : 4:2:0
Bit depth                   : 8 bits
Scan type                   : Progressive
Bits/(Pixel*Frame)          : 0.218
Stream size                 : 236 MiB (80%)
Writing library             : x264 core 130 r2273 b3065e6
Encoding settings           : cabac=1 / ref=10 / deblock=1:-2:0 / analyse=0x3:0x133 / me=umh / subme=11 / psy=1 / psy_rd=1.30:0.37 / mixed_ref=1 / me_range=28 / chroma_me=1 / trellis=2 / 8x8dct=1 / cqm=0 / deadzone=21,11 / fast_pskip=0 / chroma_qp_offset=-4 / threads=12 / lookahead_threads=1 / sliced_threads=0 / nr=0 / decimate=0 / interlaced=0 / bluray_compat=0 / constrained_intra=0 / bframes=9 / b_pyramid=2 / b_adapt=1 / b_bias=0 / direct=1 / weightb=1 / open_gop=1 / weightp=2 / keyint=250 / keyint_min=25 / scenecut=40 / intra_refresh=0 / rc_lookahead=50 / rc=abr / mbtree=1 / bitrate=2100 / ratetol=1.0 / qcomp=0.60 / qpmin=0 / qpmax=69 / qpstep=4 / ip_ratio=1.41 / aq=1:1.10
Language                    : English
Default                     : Yes
Forced                      : Yes
Color primaries             : Generic film
Color range                 : Limited
Audio
ID                          : 2
Format                      : AC-3
Format/Info                 : Audio Coding 3
Mode extension              : CM (complete main)
Format settings, Endianness : Big
Codec ID                    : A_AC3
Duration                    : 16mn 16s
Bit rate mode               : Constant
Bit rate                    : 448 Kbps
Channel(s)                  : 2 channels
Channel positions           : Front: L R
Sampling rate               : 48.0 KHz
Bit depth                   : 16 bits
Compression mode            : Lossy
Stream size                 : 52.1 MiB (18%)
Language                    : English
Default                     : Yes
Forced                      : Yes

[Цитировать]



Показать сообщения:    

Текущее время: 08-Дек 12:49

Часовой пояс: UTC + 3


Вы не можете начинать темы
Вы не можете отвечать на сообщения
Вы не можете редактировать свои сообщения
Вы не можете удалять свои сообщения
Вы не можете голосовать в опросах
Вы не можете прикреплять файлы к сообщениям
Вы не можете скачивать файлы

!ВНИМАНИЕ!
Сайт не предоставляет электронные версии произведений, а занимается лишь коллекционированием и каталогизацией ссылок, присылаемых и публикуемых на форуме нашими читателями. Если вы являетесь правообладателем какого-либо представленного материала и не желаете, чтобы ссылка на него находилась в нашем каталоге, свяжитесь с нами, и мы незамедлительно удалим ее. Файлы для обмена на трекере предоставлены пользователями сайта, и администрация не несет ответственности за их содержание. Просьба не заливать файлы, защищенные авторскими правами, а также файлы нелегального содержания!