[ Сегодня идет свободное скачивание без начисления Download ]


Статистика раздачи
Нет
 
   
 
Top  
 
 
Приключения Толи Клюквина
Жанр: комедия, приключения
Год выпуска: 1964
Продолжительность: 01:02:12
Режиссёр: Виктор Эйсымонт
В ролях: Андрюша Филатов, Татьяна Пельтцер, Рома Боровков, Нина Гребешкова, Евгений Весник, Борис Новиков, Марк Перцовский, Сергей Филиппов, Светлана Харитонова, Зоя Василькова, Владимир Смирнов, Виолетта Сеземова, Володя Пешня, Игорь Тверской
Описание: Веселая комедия по рассказам Николая Носова.
Раз отправился Толя Клюквин в гости к своему другу, а увидел "живую калошу", которую тянул за веревочку другой мальчик. Толя выяснил, что мальчик добыл калошу на чердаке, полезли на чердак, нашли удочку и отправились рыбу ловить. После удачной рыбалки и познакомились. Звали мальчика Слава Огоньков...
Доп. информация: Очередная запись трансляции ТК "Культура" от коллеги TarasBilbо.
Качество видео: DVB
Формат видео: MPEG-PS
Видео: MPEG Video, 720x576 (4:3), 25,000 кадров/сек, 5359 Кбит/сек
Аудио: MPEG Audio, 48,0 КГц, 256 Кбит/сек, 2 канала

MediaInfo

Общее
Полное имя : E:\Torrent\Приключения Толи Клюквина\Приключения Толи Клюквина.mpg
Формат : MPEG-PS
Размер файла : 2,49 Гбайт
Продолжительность : 1 ч. 2 м.
Режим общего битрейта : Переменный
Общий поток : 5729 Кбит/сек
Видео
Идентификатор : 224 (0xE0)
Формат : MPEG Video
Версия формата : Version 2
Профиль формата : Main@Main
Параметр BVOP формата : Да
Параметр матрицы формата : Выборочная
Продолжительность : 1 ч. 2 м.
Вид битрейта : Переменный
Битрейт : 5359 Кбит/сек
Максимальный битрейт : 10000 Кбит/сек
Ширина : 720 пикселей
Высота : 576 пикселей
Соотношение сторон : 4:3
Частота кадров : 25,000 кадров/сек
Стандарт вещания : PAL
Цветовое пространство : YUV
Субдискретизация насыщенности : 4:2:0
Битовая глубина : 8 бит
Тип развёртки : Чересстрочная
Порядок развёртки : Верхнее поле первое
Метод сжатия : С потерями
Бит/(Пиксели*Кадры) : 0.517
Размер потока : 2,33 Гбайт (94%)
Аудио
Идентификатор : 192 (0xC0)
Формат : MPEG Audio
Версия формата : Version 1
Профиль формата : Layer 2
Продолжительность : 1 ч. 2 м.
Вид битрейта : Постоянный
Битрейт : 256 Кбит/сек
Каналы : 2 канала
Частота : 48,0 КГц
Метод сжатия : С потерями
Размер потока : 114 Мбайт (4%)

Скриншоты

[Цитировать]



Показать сообщения:    

Текущее время: 09-Дек 05:03

Часовой пояс: UTC + 3


Вы не можете начинать темы
Вы не можете отвечать на сообщения
Вы не можете редактировать свои сообщения
Вы не можете удалять свои сообщения
Вы не можете голосовать в опросах
Вы не можете прикреплять файлы к сообщениям
Вы не можете скачивать файлы

!ВНИМАНИЕ!
Сайт не предоставляет электронные версии произведений, а занимается лишь коллекционированием и каталогизацией ссылок, присылаемых и публикуемых на форуме нашими читателями. Если вы являетесь правообладателем какого-либо представленного материала и не желаете, чтобы ссылка на него находилась в нашем каталоге, свяжитесь с нами, и мы незамедлительно удалим ее. Файлы для обмена на трекере предоставлены пользователями сайта, и администрация не несет ответственности за их содержание. Просьба не заливать файлы, защищенные авторскими правами, а также файлы нелегального содержания!