[ Сегодня идет свободное скачивание без начисления Download ]


Статистика раздачи
Нет
 
   
 
Top  
 
 
Приключения в городе, которого нет
Жанр: сказка, музыкальный, приключения
Год выпуска: 1974
Продолжительность: 01:20:24
Режиссёр: Леонид Нечаев
В ролях: Женя Горячев, Игорь Анисимов, Валентинс Скулме (озвучание - Зиновий Гердт), Вячеслав Баранов, Гедиминас Карка, Саша Плющев, Саша Покко, Валерий Носик, Таня Прусакова, Леонид Каневский, Иван Переверзев, Игорь Амбражевич, Игорь Кондратович, Ирина Шилкина, Николай Гринько, Игорь Гущин, Леонид Крюк, Вадим Александров, Миша Сачук, Александр Пятков, Валентин Букин, Стефания Станюта, Яков Ленц, Валерий Гутман
Описание: Подросток Славка Курочкин собирается создать мощнейший телескоп, чтобы первым на Земле установить контакт с иными мирами. Однако, по литературе у него одни "двойки". Одноклассница Марина Сомова решает хитростью приобщить Славку к чтению. С ее помощью мальчик попадает в сказочный книжный город...
Доп. информация: Запись потока *.ts со спутника LIM 1, микширование в *.mpg программой VideoReDo.
Качество видео: DVB
Формат видео: MPEG-PS
Видео: MPEG Video, 720x576 (4:3), 25,000 кадров/сек, 4130 Кбит/сек
Аудио: MPEG Audio, 48,0 КГц, 192 Кбит/сек, 2 канала

MediaInfo

Общее
Полное имя : E:\Torrent\Приключения в городе которого нет\Приключения в городе которого нет.mpg
Формат :
Размер файла : 2,48 Гбайт
Продолжительность : 1 ч. 20 м.
Режим общего битрейта : Переменный
Общий поток : 4410 Кбит/сек
Видео
Идентификатор : 224 (0xE0)
Формат : MPEG Video
Версия формата : Version 2
Профиль формата : [email protected]
Параметр BVOP формата : Да
Параметр матрицы формата : Выборочная
Продолжительность : 1 ч. 20 м.
Вид битрейта : Переменный
Битрейт : 4130 Кбит/сек
Максимальный битрейт : 8000 Кбит/сек
Ширина : 720 пикселей
Высота : 576 пикселей
Соотношение сторон : 4:3
Частота кадров : 25,000 кадров/сек
Стандарт вещания : PAL
Цветовое пространство : YUV
Субдискретизация насыщенности : 4:2:0
Битовая глубина : 8 бит
Тип развёртки : Чересстрочная
Порядок развёртки : Верхнее поле первое
Метод сжатия : С потерями
Бит/(Пиксели*Кадры) : 0.398
Размер потока : 2,32 Гбайт (94%)
Аудио
Идентификатор : 192 (0xC0)
Формат : MPEG Audio
Версия формата : Version 1
Профиль формата : Layer 2
Продолжительность : 1 ч. 20 м.
Вид битрейта : Постоянный
Битрейт : 192 Кбит/сек
Каналы : 2 канала
Частота : 48,0 КГц
Метод сжатия : С потерями
Размер потока : 110 Мбайт (4%)

Скриншоты

[Цитировать]



Показать сообщения:    

Текущее время: 05-Дек 11:36

Часовой пояс: UTC + 3


Вы не можете начинать темы
Вы не можете отвечать на сообщения
Вы не можете редактировать свои сообщения
Вы не можете удалять свои сообщения
Вы не можете голосовать в опросах
Вы не можете прикреплять файлы к сообщениям
Вы не можете скачивать файлы

!ВНИМАНИЕ!
Сайт не предоставляет электронные версии произведений, а занимается лишь коллекционированием и каталогизацией ссылок, присылаемых и публикуемых на форуме нашими читателями. Если вы являетесь правообладателем какого-либо представленного материала и не желаете, чтобы ссылка на него находилась в нашем каталоге, свяжитесь с нами, и мы незамедлительно удалим ее. Файлы для обмена на трекере предоставлены пользователями сайта, и администрация не несет ответственности за их содержание. Просьба не заливать файлы, защищенные авторскими правами, а также файлы нелегального содержания!