[ Сегодня идет свободное скачивание без начисления Download ]


Статистика раздачи
Нет
 
   
 
Top  
 
 
Неуловимые мстители
Жанр: приключения
Год выпуска: 1966
Продолжительность: 01:13:50
Режиссёр: Эдмонд Кеосаян
В ролях:
Василий Васильев - Яшка-цыган
Виктор Косых - Данька Щусь
Валентина Курдюкова - Ксанка Щусь
Михаил Метёлкин - Валерка Мещеряков
Лев Свердлин - С. М. Будённый
Ефим Копелян - атаман Бурнаш
Владимир Белокуров - отец-философ
Владимир Трещалов - Сидор Лютый (роль озвучил Евгений Весник)
Геннадий Юхтин - Игнат
Надежда Федосова - тётка Дарья
Инна Чурикова - Белокурая Жози
Борис Сичкин - Буба Касторский
Савелий Крамаров - Илюха
Описание: Юные герои этого фильма стали настоящей легендой. Их подвиги наводят ужас на банды, бесчинствующие на юге Украины в годы гражданской войны. «Неуловимые» не раз подвергаются смертельной опасности, но благодаря своей смелости и изобретательности неизменно одерживают победу в неравном поединке.

Качество видео: DVDRip-AVC
Формат видео: MKV
Видео: x264 (High@L4.1); Анаморф 608@900x400; Display aspect ratio 2.25:1, 25.000 fps, 2355 Kbps
Аудио: Оригинал AC-3; 16 bit 48 Khz; 6ch 448 Kbps; CBR

Скриншоты

Исходник

MediaInfo

General
Unique ID : 187776456191932117866439238777344395204 (0x8D446E135F472CF98981A3537A9887C4)
Complete name : Неуловимые мстители.1966.mkv
Format : Matroska
Format version : Version 2
File size : 1.45 GiB
Duration : 1h 13mn
Overall bit rate : 2 804 Kbps
Encoded date : UTC 2012-07-23 08:12:12
Writing application : mkvmerge v5.7.0 ('The Whirlwind') built on Jul 8 2012 20:08:51
Writing library : libebml v1.2.3 + libmatroska v1.3.0
Video
ID : 1
Format : AVC
Format/Info : Advanced Video Codec
Format profile : High@L4.1
Format settings, CABAC : Yes
Format settings, ReFrames : 16 frames
Codec ID : V_MPEG4/ISO/AVC
Duration : 1h 13mn
Bit rate : 2 355 Kbps
Width : 608 pixels
Height : 400 pixels
Display aspect ratio : 2.25:1
Frame rate : 25.000 fps
Color space : YUV
Chroma subsampling : 4:2:0
Bit depth : 8 bits
Scan type : Progressive
Bits/(Pixel*Frame) : 0.387
Stream size : 1.19 GiB (82%)
Title : Неуловимые мстители.1966
Writing library : x264 core 125 r2200 999b753
Encoding settings : cabac=1 / ref=16 / deblock=1:-1:-1 / analyse=0x3:0x133 / me=umh / subme=11 / psy=1 / psy_rd=1.00:0.20 / mixed_ref=1 / me_range=48 / chroma_me=1 / trellis=2 / 8x8dct=1 / cqm=0 / deadzone=21,11 / fast_pskip=0 / chroma_qp_offset=-3 / threads=12 / lookahead_threads=2 / sliced_threads=0 / nr=0 / decimate=0 / interlaced=0 / bluray_compat=0 / constrained_intra=0 / bframes=9 / b_pyramid=2 / b_adapt=2 / b_bias=0 / direct=3 / weightb=1 / open_gop=0 / weightp=2 / keyint=250 / keyint_min=25 / scenecut=40 / intra_refresh=0 / rc_lookahead=60 / rc=2pass / mbtree=1 / bitrate=2355 / ratetol=1.0 / qcomp=0.60 / qpmin=0 / qpmax=69 / qpstep=4 / cplxblur=20.0 / qblur=0.5 / vbv_maxrate=50000 / vbv_bufsize=62500 / nal_hrd=none / ip_ratio=1.40 / aq=1:1.10
Language : Russian
Default : Yes
Forced : No
Color primaries : BT.470-6 System B, BT.470-6 System G, BT.601-6 625, BT.1358 625, BT.1700 625 PAL, BT.1700 625 SECAM
Transfer characteristics : BT.470-6 System B, BT.470-6 System G
Matrix coefficients : BT.470-6 System B, BT.470-6 System G, BT.601-6 625, BT.1358 625, BT.1700 625 PAL, BT.1700 625 SECAM, IEC 61966-2-4 601
Audio
ID : 2
Format : AC-3
Format/Info : Audio Coding 3
Mode extension : CM (complete main)
Codec ID : A_AC3
Duration : 1h 13mn
Bit rate mode : Constant
Bit rate : 448 Kbps
Channel(s) : 6 channels
Channel positions : Front: L C R, Side: L R, LFE
Sampling rate : 48.0 KHz
Bit depth : 16 bits
Compression mode : Lossy
Stream size : 237 MiB (16%)
Title : Оригинал AC-3; 16 bit 48 Khz; 6ch 448 Kbps; CBR
Language : Russian
Default : Yes
Forced : No

x264 log

...last pass...
x264.exe: --pass 2 --bitrate 2355 --preset medium --ref 16 --aq-strength 1.1 --deblock -1:-1 --merange 48 --bframes 9 --direct auto --b-adapt 2 --trellis 2 --no-fast-pskip --no-dct-decimate --psy-rd 1.00:0.20 --vbv-maxrate 50000 --vbv-bufsize 62500 --partitions all --subme 11 --me umh --rc-lookahead 60 --colorprim bt470bg --transfer bt470bg --colormatrix bt470bg --sar 225:152 --stats "K:\Неуловимые мстители.1966.log" --output "K:\Неуловимые мстители.1966.mkv" "L:\Temp\0362.avs"
avs [info]: 608x400p 225:152 @ 25/1 fps (cfr)
x264 [info]: using SAR=225/152
x264 [info]: using cpu capabilities: MMX2 SSE2Fast SSSE3 FastShuffle SSE4.2
x264 [info]: profile High, level 4.1
x264 [info]: frame I:644 Avg QP:19.74 size: 48320
x264 [info]: frame P:23485 Avg QP:21.01 size: 25957
x264 [info]: frame B:86622 Avg QP:24.77 size: 7655
x264 [info]: consecutive B-frames: 1.1% 1.6% 6.2% 28.3% 16.7% 38.2% 4.2% 1.5% 0.8% 1.4%
x264 [info]: mb I I16..4: 6.1% 71.1% 22.8%
x264 [info]: mb P I16..4: 0.4% 14.4% 2.2% P16..4: 25.8% 31.6% 15.0% 7.8% 1.4% skip: 1.4%
x264 [info]: mb B I16..4: 0.0% 2.8% 0.2% B16..8: 32.6% 21.4% 4.2% direct:10.6% skip:28.0% L0:33.6% L1:36.2% BI:30.1%
x264 [info]: 8x8 transform intra:85.6% inter:51.2%
x264 [info]: direct mvs spatial:96.7% temporal:3.3%
x264 [info]: coded y,uvDC,uvAC intra: 96.8% 82.7% 55.0% inter: 42.1% 29.6% 11.4%
x264 [info]: i16 v,h,dc,p: 43% 11% 14% 32%
x264 [info]: i8 v,h,dc,ddl,ddr,vr,hd,vl,hu: 13% 7% 10% 9% 12% 13% 11% 13% 13%
x264 [info]: i4 v,h,dc,ddl,ddr,vr,hd,vl,hu: 15% 6% 5% 9% 13% 15% 11% 13% 12%
x264 [info]: i8c dc,h,v,p: 34% 26% 24% 16%
x264 [info]: Weighted P-Frames: Y:46.1% UV:26.7%
x264 [info]: ref P L0: 35.8% 12.7% 14.6% 8.5% 5.3% 4.7% 3.4% 2.4% 1.9% 2.0% 1.6% 1.6% 1.4% 1.5% 1.3% 1.2%
x264 [info]: ref B L0: 80.2% 9.1% 2.9% 1.9% 1.2% 1.1% 0.8% 0.6% 0.4% 0.5% 0.4% 0.4% 0.3% 0.3% 0.1%
x264 [info]: ref B L1: 95.7% 4.3%
x264 [info]: kb/s:2354.49
x264 [total]: encoded 110751 frames, 14.80 fps, 2354.49 kb/s

FAQ по просмотру MKV/h.264/AAC
















[Цитировать]



Показать сообщения:    

Текущее время: 07-Дек 21:24

Часовой пояс: UTC + 3


Вы не можете начинать темы
Вы не можете отвечать на сообщения
Вы не можете редактировать свои сообщения
Вы не можете удалять свои сообщения
Вы не можете голосовать в опросах
Вы не можете прикреплять файлы к сообщениям
Вы не можете скачивать файлы

!ВНИМАНИЕ!
Сайт не предоставляет электронные версии произведений, а занимается лишь коллекционированием и каталогизацией ссылок, присылаемых и публикуемых на форуме нашими читателями. Если вы являетесь правообладателем какого-либо представленного материала и не желаете, чтобы ссылка на него находилась в нашем каталоге, свяжитесь с нами, и мы незамедлительно удалим ее. Файлы для обмена на трекере предоставлены пользователями сайта, и администрация не несет ответственности за их содержание. Просьба не заливать файлы, защищенные авторскими правами, а также файлы нелегального содержания!