[ Сегодня идет свободное скачивание без начисления Download ]


Статистика раздачи
Нет
 
   
 
Top  
 
 
Хранитель времени / The Keeper of Time«Let the adventure begin»
Страна: Россия , Чехия , США
Жанр: сказка, приключения
Год выпуска: 2004
Продолжительность: 01:28:44
Язык: русский (профессиональный дублированный)
Режиссёр: Вадим Соколовский (при участии Роберта Кромби)
В ролях: Майкл О'Хорн, Паша Александров, Адам Дапкис, Анна Молчанова, Саулюс Баландис, Даля Михелявичюте, Петер Фучек, Андреас Чюрленис, Агнешка Лилуте, Видас Петкявичюс, Гражина Урбонайте, Бенас Билинкас, Арунас Сакалаускас, Витаутас Шапранаускас, Риманте Валиукайте, Любомирас Лауцявичюс, Римгаудас Карвялис, Эгле Микулёните, Костас Сморигинас
Описание: Захватывающая фэнтези-сказка рассказывает о мальчике, чьи родители-фокусники уезжают на гастроли, оставив сына с пожилым коллегой. Странный и таинственный старик рассказывает мальчику историю, которая переносит его в далекое средневековье, где злой маг пытается захватить власть над миром. Если его попытка удастся, то безраздельное зло будет властвовать над миром еще пятьсот лет. Единственный, кто может предотвратить эту беду - двенадцатилетний мальчик, последний из уцелевших детей-волшебников. С помощью своих друзей - мудрого мага и храброго воина - он пересекает полмира, чтобы сразиться со злом и победить его. "Хранитель времени"- увлекательная детская сказка, которая перенесет ребенка в волшебный и удивительный мир.
Доп. информация:

Сценарий: Евгений Ефуни
Оператор: Томас Хенц
Художник: Аугис Кепежинскас
Композитор: Дарин Сысоев
Производство: ТПО "РОК" при поддержке Федерального агентства по культуре и кинематографии,
при участии киностудии "Дана" (Чехия) и "Harvest Entertainment" (США).
При просмотре фильма детьми рекомендуется присутствие родителей.

Ограничения

Рейтинг PG - Рекомендуется присутствие родителей.

Этот рейтинг получают фильмы, которые требуют внимания со стороны родителей. Возможно, некоторые сцены из картины родители посчитают неприемлемыми для просмотра своими детьми. Но в фильме точно отсутствуют сексуальные эпизоды и сцены с использованием наркотиков. Рейтинг PG никогда не присвоят ленте жанра "хоррор" или "триллер".
Релиз киноклуба
Синхронизация звука - tengu

Качество видео: SATRip
Формат видео: AVI
Видео: 704x544 (1.29:1), 25 fps, XviD build 50 ~2066 kbps avg, 0.22 bit/pixel
Аудио: 48 kHz, MPEG Layer 3, 2 ch, ~128.00 kbps avg

MediaInfo

General
Complete name : D:\Public\hranitel.vremeni.2004.avi
Format : AVI
Format/Info : Audio Video Interleave
File size : 1.37 GiB
Duration : 1h 28mn
Overall bit rate : 2 205 Kbps
Writing application : VirtualDubMod 1.5.10.2 (build 2540/release)
Writing library : VirtualDubMod build 2540/release
Video
ID : 0
Format : MPEG-4 Visual
Format profile : Advanced [email protected]
Format settings, BVOP : 1
Format settings, QPel : No
Format settings, GMC : No warppoints
Format settings, Matrix : Default (H.263)
Codec ID : XVID
Codec ID/Hint : XviD
Duration : 1h 28mn
Bit rate : 2 067 Kbps
Width : 704 pixels
Height : 544 pixels
Display aspect ratio : 1.294
Frame rate : 25.000 fps
Color space : YUV
Chroma subsampling : 4:2:0
Bit depth : 8 bits
Scan type : Progressive
Compression mode : Lossy
Bits/(Pixel*Frame) : 0.216
Stream size : 1.28 GiB (94%)
Writing library : XviD 1.2.1 (UTC 2008-12-04)
Audio
ID : 1
Format : MPEG Audio
Format version : Version 1
Format profile : Layer 3
Mode : Joint stereo
Mode extension : MS Stereo
Codec ID : 55
Codec ID/Hint : MP3
Duration : 1h 28mn
Bit rate mode : Constant
Bit rate : 128 Kbps
Channel(s) : 2 channels
Sampling rate : 48.0 KHz
Compression mode : Lossy
Delay relative to video : 16ms
Stream size : 81.2 MiB (6%)
Alignment : Split accross interleaves
Interleave, duration : 40 ms (1.00 video frame)
Interleave, preload duration : 500 ms

Скриншот c названием фильма

Скриншоты

[Цитировать]



Показать сообщения:    

Текущее время: 04-Дек 23:26

Часовой пояс: UTC + 3


Вы не можете начинать темы
Вы не можете отвечать на сообщения
Вы не можете редактировать свои сообщения
Вы не можете удалять свои сообщения
Вы не можете голосовать в опросах
Вы не можете прикреплять файлы к сообщениям
Вы не можете скачивать файлы

!ВНИМАНИЕ!
Сайт не предоставляет электронные версии произведений, а занимается лишь коллекционированием и каталогизацией ссылок, присылаемых и публикуемых на форуме нашими читателями. Если вы являетесь правообладателем какого-либо представленного материала и не желаете, чтобы ссылка на него находилась в нашем каталоге, свяжитесь с нами, и мы незамедлительно удалим ее. Файлы для обмена на трекере предоставлены пользователями сайта, и администрация не несет ответственности за их содержание. Просьба не заливать файлы, защищенные авторскими правами, а также файлы нелегального содержания!