[ Сегодня идет свободное скачивание без начисления Download ]


Статистика раздачи
Нет
 
   
 
Top  
 
 
Тигры на льду
Жанр: детский фильм, семейное кино
Год выпуска: 1971
Продолжительность: 01:17:08
Режиссёр: Валентин Козачков, Альберт Осипов
В ролях: Юля Корнева, Витя Снорков, Дима Сосновский, Саша Кривенко, Игорь Воробьев (II), Павел Ананьев, Петя Черкашин, Леван Шамилов, Наташа Белоус, Андрей Свидерский, Георгий Светлани, Наталья Фатеева, Юрий Дедович, Леопольд Бегун, Владимир Грамматиков, Дима Баранов, Саша Голиков, Миша Миронов, Стасик Светлов, Виталий Чижиков
Описание: Телефильм. Сестра и брат - близнецы учатся в одном классе. Девочка Зина занимается в драматическом кружке и секции фигурного катания, а её брат Игнат, убедившись в собственной физической слабости, начинает играть в дворовой хоккейной команде «Тигры».
Доп. информация: Запись потока *.ts со спутника EUTELSAT, микширование в *.mpg программой VideoReDo.
Качество видео: DVB
Формат видео: MPEG-PS
Видео: MPEG Video, 720x576 (4 : 3), 25,000 кадров/сек, 3925 Кбит/сек
Аудио: MPEG Audio, 48,0 КГц, 192 Кбит/сек, 2 канала

MediaInfo

Общее
Полное имя : E:\Torrent\Тигры на льду\Тигры на льду.mpg
Формат : MPEG-PS
Размер файла : 2,26 Гбайт
Продолжительность : 1 ч. 17 м.
Режим общего битрейта : Переменный
Общий поток : 4201 Кбит/сек
Видео
Идентификатор : 224 (0xE0)
Формат : MPEG Video
Версия формата : Version 2
Профиль формата : Main@Main
Параметр BVOP формата : Да
Параметр матрицы формата : Выборочная
Продолжительность : 1 ч. 17 м.
Вид битрейта : Переменный
Битрейт : 3925 Кбит/сек
Максимальный битрейт : 5000 Кбит/сек
Ширина : 720 пикселей
Высота : 576 пикселей
Соотношение сторон : 4:3
Частота кадров : 25,000 кадров/сек
Стандарт вещания : PAL
Цветовое пространство : YUV
Субдискретизация насыщенности : 4:2:0
Битовая глубина : 8 бит
Тип развёртки : Чересстрочная
Порядок развёртки : Верхнее поле первое
Метод сжатия : С потерями
Бит/(Пиксели*Кадры) : 0.379
Размер потока : 2,11 Гбайт (93%)
Аудио
Идентификатор : 192 (0xC0)
Формат : MPEG Audio
Версия формата : Version 1
Профиль формата : Layer 2
Продолжительность : 1 ч. 17 м.
Вид битрейта : Постоянный
Битрейт : 192 Кбит/сек
Каналы : 2 канала
Частота : 48,0 КГц
Метод сжатия : С потерями
Размер потока : 106 Мбайт (5%)

[Цитировать]



Показать сообщения:    

Текущее время: 09-Дек 16:26

Часовой пояс: UTC + 3


Вы не можете начинать темы
Вы не можете отвечать на сообщения
Вы не можете редактировать свои сообщения
Вы не можете удалять свои сообщения
Вы не можете голосовать в опросах
Вы не можете прикреплять файлы к сообщениям
Вы не можете скачивать файлы

!ВНИМАНИЕ!
Сайт не предоставляет электронные версии произведений, а занимается лишь коллекционированием и каталогизацией ссылок, присылаемых и публикуемых на форуме нашими читателями. Если вы являетесь правообладателем какого-либо представленного материала и не желаете, чтобы ссылка на него находилась в нашем каталоге, свяжитесь с нами, и мы незамедлительно удалим ее. Файлы для обмена на трекере предоставлены пользователями сайта, и администрация не несет ответственности за их содержание. Просьба не заливать файлы, защищенные авторскими правами, а также файлы нелегального содержания!