[ Сегодня идет свободное скачивание без начисления Download ]


Статистика раздачи
Нет
 
   
 
Top  
 
 
Время "Х"
Жанр: фантастика, приключения
Год выпуска: 1992
Продолжительность: 01:23:28
Режиссёр: Александр Бурцев
В ролях: Антон Лазарев, Ольга Солодовникова, Денис Попов, Ян Никитин, Андрей Кумвенда, Александр Ким, Владимир Шевельков, Валерий Бассэль, Андрей Бубашкин, Юрий Невгамонный, братья Чафоновы, Александр Лобачевский, Павел Соколов, кот Иннокентий Колесник (озвучание - Павел Соколов), овчарка Робби Полищук (озвучание - Павел Соколов), Александр Галкин, Ирина Токарчук, Виктор Раду, Татьяна Демидова, Ирина Задорожная
Описание: Соседи по Галактике жутко обиделись на землян за их отношение к своей планете. И на Землю со специальной миссией прибыл инопланетянин Лури, похожий на обычного земного подростка. Лури послан к нам, дабы сообщить, что скоро время на Земле будет повернуто вспять — на столетие назад, и всё это для того, чтобы люди могли повторно прожить XX век «экологически правильно и безопасно». Впрочем, для героев фильма это может означать просто гибель, ибо в мире прадедушек и прабабушек ныне живущим места не будет...
Доп. информация:
Сценарий: Андрей Гаврилов
Оператор: Леонид Казаков
Художник: Анатолий Поляков
Композитор: Андрей Романов
Музыка: ансамбль "Трилистник"

Релиз киноклуба
Фильм раздаётся с любезного разрешения tengu

Качество видео: TVRip
Формат видео: AVI
Видео: 720x544 (1.32:1), 25 fps, XviD build 50 ~2205 kbps avg, 0.23 bit/pixel
Аудио: 48 kHz, MPEG Layer 3, 2 ch, ~128.00 kbps avg

MediaInfo

General
Complete name : D:\Public\Время_Икс.1992.TVRip.avi
Format : AVI
Format/Info : Audio Video Interleave
File size : 1.37 GiB
Duration : 1h 23mn
Overall bit rate : 2 344 Kbps
Writing application : VirtualDubMod 1.5.10.2 (build 2540/release)
Writing library : VirtualDubMod build 2540/release
Video
ID : 0
Format : MPEG-4 Visual
Format profile : Advanced Simple@L5
Format settings, BVOP : 1
Format settings, QPel : No
Format settings, GMC : No warppoints
Format settings, Matrix : Default (H.263)
Codec ID : XVID
Codec ID/Hint : XviD
Duration : 1h 23mn
Bit rate : 2 206 Kbps
Width : 720 pixels
Height : 544 pixels
Display aspect ratio : 4:3
Frame rate : 25.000 fps
Color space : YUV
Chroma subsampling : 4:2:0
Bit depth : 8 bits
Scan type : Progressive
Compression mode : Lossy
Bits/(Pixel*Frame) : 0.225
Stream size : 1.29 GiB (94%)
Writing library : XviD 1.2.1 (UTC 2008-12-04)
Audio
ID : 1
Format : MPEG Audio
Format version : Version 1
Format profile : Layer 3
Mode : Joint stereo
Mode extension : MS Stereo
Codec ID : 55
Codec ID/Hint : MP3
Duration : 1h 23mn
Bit rate mode : Constant
Bit rate : 128 Kbps
Channel(s) : 2 channels
Sampling rate : 48.0 KHz
Compression mode : Lossy
Stream size : 76.4 MiB (5%)
Alignment : Aligned on interleaves
Interleave, duration : 40 ms (1.00 video frame)
Interleave, preload duration : 504 ms
Writing library : LAME3.98.2

Скриншот c названием фильма

Скриншоты

[Цитировать]



Показать сообщения:    

Текущее время: 11-Дек 13:02

Часовой пояс: UTC + 3


Вы не можете начинать темы
Вы не можете отвечать на сообщения
Вы не можете редактировать свои сообщения
Вы не можете удалять свои сообщения
Вы не можете голосовать в опросах
Вы не можете прикреплять файлы к сообщениям
Вы не можете скачивать файлы

!ВНИМАНИЕ!
Сайт не предоставляет электронные версии произведений, а занимается лишь коллекционированием и каталогизацией ссылок, присылаемых и публикуемых на форуме нашими читателями. Если вы являетесь правообладателем какого-либо представленного материала и не желаете, чтобы ссылка на него находилась в нашем каталоге, свяжитесь с нами, и мы незамедлительно удалим ее. Файлы для обмена на трекере предоставлены пользователями сайта, и администрация не несет ответственности за их содержание. Просьба не заливать файлы, защищенные авторскими правами, а также файлы нелегального содержания!