[ Today is free to download without increasing Download ]

DL-List and Torrent activity
Мои каникулы
Жанр: приключения, короткометражный
Год выпуска: 1973
Продолжительность: 00:23:02
Режиссёр: Ираклий Асатиани
В ролях: Леомер Гугушвили, Шалва Херхеулидзе, Михаил Кинцурашвили, Лео Сохашвили, Иванэ (Вано) Сакварелидзе
Описание: Приключения подростка, который приехал из города на летнее каникулы в деревню.
Доп. информация:
Сценарий: Гия Бадридзе
Операторы: Феликс Высоцкий, Л. Высоцкий
Художник: Кахабер (Кахи) Хуцишвили
Семпл: http://multi-up.com/748461
Качество видео: TVRip
Формат видео: AVI
Видео: 720х544 (1.32:1), 25 fps, XviD 63 ~766 Kbps avg, 0.078 bit/pixel
Аудио: 44.1 KHz, MP3, 2 channels ~117 Kbps kbps avg, VBR


Complete name : C:\Users\user020810\Downloads\Moi kanikuli.avi
Format : AVI
Format/Info : Audio Video Interleave
File size : 148 MiB
Duration : 23mn 2s
Overall bit rate mode : Variable
Overall bit rate : 896 Kbps
Writing application : MEncoder r33883
Writing library : MPlayer
ID : 0
Format : MPEG-4 Visual
Format profile : Simple@L3
Format settings, BVOP : No
Format settings, QPel : No
Format settings, GMC : No warppoints
Format settings, Matrix : Default (H.263)
Codec ID : XVID
Codec ID/Hint : XviD
Duration : 23mn 2s
Bit rate : 766 Kbps
Width : 720 pixels
Height : 544 pixels
Display aspect ratio : 4:3
Frame rate : 25.000 fps
Color space : YUV
Chroma subsampling : 4:2:0
Bit depth : 8 bits
Scan type : Progressive
Compression mode : Lossy
Bits/(Pixel*Frame) : 0.078
Stream size : 126 MiB (85%)
Writing library : XviD 63
ID : 1
Format : MPEG Audio
Format version : Version 1
Format profile : Layer 3
Mode : Joint stereo
Mode extension : MS Stereo
Codec ID : 55
Codec ID/Hint : MP3
Duration : 23mn 2s
Bit rate mode : Variable
Bit rate : 117 Kbps
Channel(s) : 2 channels
Sampling rate : 44.1 KHz
Compression mode : Lossy
Stream size : 19.3 MiB (13%)
Alignment : Aligned on interleaves
Interleave, duration : 26 ms (0.65 video frame)
Interleave, preload duration : 461 ms

Скриншот c названием фильма



Display posts:    

Current time is: 28-Oct 01:36

All times are UTC + 3

You cannot post new topics in this forum
You cannot reply to topics in this forum
You cannot edit your posts in this forum
You cannot delete your posts in this forum
You cannot vote in polls in this forum
You cannot attach files in this forum
You cannot download files in this forum

The site does not give electronic versions of products, and is engaged only in a collecting and cataloguing of the references sent and published at a forum by our readers. If you are the legal owner of any submitted material and do not wish that the reference to it was in our catalogue, contact us and we shall immediately remove her. Files for an exchange on tracker are given by users of a site, and the administration does not bear the responsibility for their maintenance. The request to not fill in the files protected by copyrights, and also files of the illegal maintenance!