[ Сегодня идет свободное скачивание без начисления Download ]


Статистика раздачи
Нет
 
   
 
Top  
 
 
Мои каникулы
Жанр: приключения, короткометражный
Год выпуска: 1973
Продолжительность: 00:23:02
Режиссёр: Ираклий Асатиани
В ролях: Леомер Гугушвили, Шалва Херхеулидзе, Михаил Кинцурашвили, Лео Сохашвили, Иванэ (Вано) Сакварелидзе
Описание: Приключения подростка, который приехал из города на летнее каникулы в деревню.
Доп. информация:
Сценарий: Гия Бадридзе
Операторы: Феликс Высоцкий, Л. Высоцкий
Художник: Кахабер (Кахи) Хуцишвили
Семпл: http://multi-up.com/748461
Качество видео: TVRip
Формат видео: AVI
Видео: 720х544 (1.32:1), 25 fps, XviD 63 ~766 Kbps avg, 0.078 bit/pixel
Аудио: 44.1 KHz, MP3, 2 channels ~117 Kbps kbps avg, VBR

MediaInfo

General
Complete name : C:\Users\user020810\Downloads\Moi kanikuli.avi
Format : AVI
Format/Info : Audio Video Interleave
File size : 148 MiB
Duration : 23mn 2s
Overall bit rate mode : Variable
Overall bit rate : 896 Kbps
Writing application : MEncoder r33883
Writing library : MPlayer
Video
ID : 0
Format : MPEG-4 Visual
Format profile : Simple@L3
Format settings, BVOP : No
Format settings, QPel : No
Format settings, GMC : No warppoints
Format settings, Matrix : Default (H.263)
Codec ID : XVID
Codec ID/Hint : XviD
Duration : 23mn 2s
Bit rate : 766 Kbps
Width : 720 pixels
Height : 544 pixels
Display aspect ratio : 4:3
Frame rate : 25.000 fps
Color space : YUV
Chroma subsampling : 4:2:0
Bit depth : 8 bits
Scan type : Progressive
Compression mode : Lossy
Bits/(Pixel*Frame) : 0.078
Stream size : 126 MiB (85%)
Writing library : XviD 63
Audio
ID : 1
Format : MPEG Audio
Format version : Version 1
Format profile : Layer 3
Mode : Joint stereo
Mode extension : MS Stereo
Codec ID : 55
Codec ID/Hint : MP3
Duration : 23mn 2s
Bit rate mode : Variable
Bit rate : 117 Kbps
Channel(s) : 2 channels
Sampling rate : 44.1 KHz
Compression mode : Lossy
Stream size : 19.3 MiB (13%)
Alignment : Aligned on interleaves
Interleave, duration : 26 ms (0.65 video frame)
Interleave, preload duration : 461 ms

Скриншот c названием фильма

Скриншоты

[Цитировать]



Показать сообщения:    

Текущее время: 07-Дек 11:40

Часовой пояс: UTC + 3


Вы не можете начинать темы
Вы не можете отвечать на сообщения
Вы не можете редактировать свои сообщения
Вы не можете удалять свои сообщения
Вы не можете голосовать в опросах
Вы не можете прикреплять файлы к сообщениям
Вы не можете скачивать файлы

!ВНИМАНИЕ!
Сайт не предоставляет электронные версии произведений, а занимается лишь коллекционированием и каталогизацией ссылок, присылаемых и публикуемых на форуме нашими читателями. Если вы являетесь правообладателем какого-либо представленного материала и не желаете, чтобы ссылка на него находилась в нашем каталоге, свяжитесь с нами, и мы незамедлительно удалим ее. Файлы для обмена на трекере предоставлены пользователями сайта, и администрация не несет ответственности за их содержание. Просьба не заливать файлы, защищенные авторскими правами, а также файлы нелегального содержания!