[ Today is free to download without increasing Download ]

DL-List and Torrent activity
Какое оно, море?
26.12.14 торрент обновлен, запись трансляции ТК "RTVI" заменена на запись трансляции ТК "Культура". Преимущества - битрейт видео 5200 против 1200, звук 256 против 192
Жанр: киноповесть, экранизация
Год выпуска: 1964
Продолжительность: 01:16:35
Режиссёр: Эдуард Бочаров
В ролях: Андрей Бухаров, Таня Антипина, Николай Крючков, Василий Шукшин, Лидия Федосеева-Шукшина, Виллор Кузнецов, Вадим Захарченко, Иван Жеваго, Станислав Любшин, Светлана Дружинина
Описание: По мотивам повести Николая Дубова "Мальчик у моря".
Сашке было всего шесть лет, когда он впервые отправился с рыбачьей артелью в море во время путины. Зоркий взгляд мальчугана следил за каждым действием и поступком взрослых. И поэтому не удивительно, что к моменту возвращения на берег он стал полноправным членом рыбачьей артели...
Доп. информация: Запись потока *.ts со спутника Ямал 202, 49° в.д., ремукс в *.mpg программой VideoReDo.
Постер из коллекции советских киноплакатов tokarevamarina.
Качество видео: DVB
Формат видео: MPEG-PS
Видео: MPEG Video, 720(768)х576 (4:3), 25,000 кадр/сек, 5323 Кбит/сек
Аудио: MPEG Audio, 48,0 КГц, 2 канала, 256 Кбит/сек


Complete name : X:\Torrent\Какое оно, море (КУЛЬТУРА 49).mpg
Format : MPEG-PS
File size : 3.04 GiB
Duration : 1h 16mn
Overall bit rate mode : Variable
Overall bit rate : 5 692 Kbps
ID : 224 (0xE0)
Format : MPEG Video
Format version : Version 2
Format profile : Main@Main
Format settings, BVOP : Yes
Format settings, Matrix : Custom
Duration : 1h 16mn
Bit rate mode : Variable
Bit rate : 5 323 Kbps
Maximum bit rate : 15.0 Mbps
Width : 720 pixels
Height : 576 pixels
Display aspect ratio : 4:3
Frame rate : 25.000 fps
Standard : PAL
Color space : YUV
Chroma subsampling : 4:2:0
Bit depth : 8 bits
Scan type : Interlaced
Scan order : Top Field First
Compression mode : Lossy
Bits/(Pixel*Frame) : 0.513
Stream size : 2.84 GiB (94%)
ID : 192 (0xC0)
Format : MPEG Audio
Format version : Version 1
Format profile : Layer 2
Duration : 1h 16mn
Bit rate mode : Constant
Bit rate : 256 Kbps
Channel(s) : 2 channels
Sampling rate : 48.0 KHz
Compression mode : Lossy
Delay relative to video : 9ms
Stream size : 140 MiB (4%)



Display posts:    

Current time is: 26-Oct 12:22

All times are UTC + 3

You cannot post new topics in this forum
You cannot reply to topics in this forum
You cannot edit your posts in this forum
You cannot delete your posts in this forum
You cannot vote in polls in this forum
You cannot attach files in this forum
You cannot download files in this forum

The site does not give electronic versions of products, and is engaged only in a collecting and cataloguing of the references sent and published at a forum by our readers. If you are the legal owner of any submitted material and do not wish that the reference to it was in our catalogue, contact us and we shall immediately remove her. Files for an exchange on tracker are given by users of a site, and the administration does not bear the responsibility for their maintenance. The request to not fill in the files protected by copyrights, and also files of the illegal maintenance!