[ Сегодня идет свободное скачивание без начисления Download ]


Статистика раздачи
Нет
 
   
 
Top  
 
 
Песни для внучат / Инди-минди
Жанр: приключения, музыкальный
Год выпуска: 1977
Продолжительность: 01:11:51
Язык: русский (профессиональный дублированный) + грузинский (песни)
Режиссёр: Лери Сихарулидзе
В ролях: Хатуна Чиквиладзе, Зина Кверенчхиладзе, Автандил Кварацхелиа, Пэко Нижарадзе, Автандил Гогисванидзе, Шалва Сипрошвили, Звиад Сихарулидзе, Каха Шукакидзе, Мурман Ломтатидзе, Вахтанг Нинидзе, Шалва Медзвелия, Серго Сихарулидзе, Вера Хубаева, Нато Гварджаладзе, Тинико Антадзе, Чаку Саджая, Мирза Уклеба, Омар Перадзе, Реваз Хонелидзе, Вано Жоржолиани, Аркадий Шалолашвили (от автора)
Описание: Есть в Грузии небольшой городок Саркинети. Главное достоинство этого славного городка - здесь поют все без исключения. У саркинетцев даже дети рождаются с многоголосной песней на устах. Более того, у саркинетцев дети поют всё: в их репертуаре - песни всех уголков земного шара и, говорят, даже Америки. Поэтому неудивительно, что именно для детей ежегодно, в первый воскресный день октября, устраивается грандиозный праздник - конкурс юных талантов имени непревзойденного и незабвенного саркинетского певца Церецо Нижарадзе...
Доп. информация:
Сценарий: Анзор Салуквадзе, Лери Сихарулидзе
Оператор: Николос Сухишвили
Художник: Шадиман Чавчавадзе
Композитор: Сосо Бердзенишвили
Музыка: камерный оркестр Грузии (дирижер - Сосо Барданашвили)
Вокал: Эка Кахиани, женское трио "Самая" (руководитель - Инола Гургулиа), мужской ансамбль "Рустави" (руководитель - Анзор Эркомайшвили), квартет мальчиков Дворца пионеров Тбилиси, эстрадный ансамбль "75"
Производство: "Грузия-фильм"
Семпл: http://multi-up.com/763843
Качество видео: TVRip
Формат видео: AVI
Видео: 720х544 (1.32:1), 25 fps, XviD 63, 768 kbps avg, 0.08 bit/pixel
Аудио: 44.1 kHz, MP3, 2 ch, 116.00 kbps avg, VBR

MediaInfo

General
Complete name : Pesni dly vnuchat.avi
Format : AVI
Format/Info : Audio Video Interleave
File size : 461 MiB
Duration : 1h 11mn
Overall bit rate mode : Variable
Overall bit rate : 897 Kbps
Writing application : MEncoder r33883
Writing library : VirtualDub build 32817/release
Video
ID : 0
Format : MPEG-4 Visual
Format profile : Simple@L3
Format settings, BVOP : No
Format settings, QPel : No
Format settings, GMC : No warppoints
Format settings, Matrix : Default (H.263)
Codec ID : XVID
Codec ID/Hint : XviD
Duration : 1h 11mn
Bit rate : 768 Kbps
Width : 720 pixels
Height : 544 pixels
Display aspect ratio : 4:3
Frame rate : 25.000 fps
Color space : YUV
Chroma subsampling : 4:2:0
Bit depth : 8 bits
Scan type : Progressive
Compression mode : Lossy
Bits/(Pixel*Frame) : 0.078
Stream size : 395 MiB (86%)
Writing library : XviD 63
Audio
ID : 1
Format : MPEG Audio
Format version : Version 1
Format profile : Layer 3
Mode : Joint stereo
Mode extension : MS Stereo
Codec ID : 55
Codec ID/Hint : MP3
Duration : 1h 11mn
Bit rate mode : Variable
Bit rate : 116 Kbps
Channel(s) : 2 channels
Sampling rate : 44.1 KHz
Compression mode : Lossy
Stream size : 59.8 MiB (13%)
Alignment : Aligned on interleaves
Interleave, duration : 26 ms (0.65 video frame)
Interleave, preload duration : 480 ms

Скриншоты

[Цитировать]



Показать сообщения:    

Текущее время: 09-Дек 05:03

Часовой пояс: UTC + 3


Вы не можете начинать темы
Вы не можете отвечать на сообщения
Вы не можете редактировать свои сообщения
Вы не можете удалять свои сообщения
Вы не можете голосовать в опросах
Вы не можете прикреплять файлы к сообщениям
Вы не можете скачивать файлы

!ВНИМАНИЕ!
Сайт не предоставляет электронные версии произведений, а занимается лишь коллекционированием и каталогизацией ссылок, присылаемых и публикуемых на форуме нашими читателями. Если вы являетесь правообладателем какого-либо представленного материала и не желаете, чтобы ссылка на него находилась в нашем каталоге, свяжитесь с нами, и мы незамедлительно удалим ее. Файлы для обмена на трекере предоставлены пользователями сайта, и администрация не несет ответственности за их содержание. Просьба не заливать файлы, защищенные авторскими правами, а также файлы нелегального содержания!