[ Сегодня идет свободное скачивание без начисления Download ]


Статистика раздачи
Нет
 
   
 
Top  
 
 
Воля Вселенной
Жанр: психологическая мелодрама
Год выпуска: 1988
Продолжительность: 01:06:13
Режиссёр: Дмитрий Михлеев
В ролях: Вячеслав Илющенко, Наталья Гусева, Андрей Бабошкин, Любовь Германова, Сергей Векслер, Александр Денисов, Виктор Ильичёв, Мария Виноградова, Александра Климова, Александр Лабуш, Иван Мацкевич, Валерия Богук, Денис Германов, Игорь Жигалов, Сергей Савчук, Валентин Букин, Елена Данилкина, Оксана Мархелевич, Диана Красницкая, Елизавета Нестерович, Леонид Булгаков, Елена Одинцова, Александр Беспалый
Описание: СССР, конец 1980-х годов. Обычная советская школа, седьмой класс. Главный герой — Дима Коноплёв, семиклассник без каких-либо особых талантов, - влюблён в одноклассницу Лену Лукашевич. За всё лето Дима так и не смог написать домашнее сочинение на тему «Кем я хочу стать» — он не знает, кем хочет быть, и ждёт, полагая, что какой-то внутренний голос должен подсказать ему это. Дима очень серьёзно относится к судьбе и предсказаниям будущего. Может быть, отчасти тому виной одна из его бабушек, верящая в приметы и вещие сны. Интерес Димы подогревает и его одноклассник Марик Утёночкин (кстати, тоже явно неравнодушный к Лене). Он демонстрирует «чудеса йоги», рассуждает о предопределённости, судьбе, «воле Вселенной», предвидении и предсказаниях. Однажды Марик приносит в школу «Книгу Судьбы». С её помощью якобы можно узнать, в каком возрасте и по какой причине умрёт человек. Результат гадания для Димы оказывается неприятным — по расчётам, он должен погибнуть в аварии в ближайшее воскресенье...
Доп. информация:
Сценарий: Леонид Ризин
Оператор: Анатолий Калашников
Художник: Владимир Гавриков
Композитор: Эдуард Артемьев
Саундтрек:
Ограничения на просмотр: для любой зрительской аудитории

Огромная благодарность коллеге за любезно предоставленную запись.
Качество видео: DVB
Формат видео: MPEG-PS
Видео: MPEG2 Video, 720х576 (4:3), 25 fps, 3209 kbps avg, 0.31 bit/pixel
Аудио: MPEG Audio, 48 kHz, 2 ch (dual mono), 192.00 kbps avg, CBR

MediaInfo

Полное имя : Volja Wselennoj\Volja Wselennoj.mpg
Формат : MPEG-PS
Размер файла : 1,61 Гбайт
Продолжительность : 1 ч. 6 м.
Режим общего битрейта : Переменный
Общий поток : 3470 Кбит/сек
Видео
Идентификатор : 224 (0xE0)
Формат : MPEG Video
Версия формата : Version 2
Профиль формата : Main@Main
Параметр BVOP формата : Да
Параметр матрицы формата : Выборочная
Параметр GOP формата : M=3, N=24
Продолжительность : 1 ч. 6 м.
Вид битрейта : Переменный
Битрейт : 3209 Кбит/сек
Максимальный битрейт : 15,0 Мбит/сек
Ширина : 720 пикселей
Высота : 576 пикселей
Соотношение сторон : 4:3
Частота кадров : 25,000 кадров/сек
Стандарт вещания : PAL
Цветовое пространство : YUV
Субдискретизация насыщенности : 4:2:0
Битовая глубина : 8 бит
Тип развёртки : Чересстрочная
Порядок развёртки : Верхнее поле первое
Метод сжатия : С потерями
Бит/(Пиксели*Кадры) : 0.310
Размер потока : 1,48 Гбайт (92%)
Аудио
Идентификатор : 192 (0xC0)
Формат : MPEG Audio
Версия формата : Version 1
Профиль формата : Layer 2
Режим : Dual mono
Продолжительность : 1 ч. 6 м.
Вид битрейта : Постоянный
Битрейт : 192 Кбит/сек
Каналы : 2 канала
Частота : 48,0 КГц
Метод сжатия : С потерями
Размер потока : 91,0 Мбайт (6%)

Скриншоты

[Цитировать]



Показать сообщения:    

Текущее время: 02-Дек 22:55

Часовой пояс: UTC + 3


Вы не можете начинать темы
Вы не можете отвечать на сообщения
Вы не можете редактировать свои сообщения
Вы не можете удалять свои сообщения
Вы не можете голосовать в опросах
Вы не можете прикреплять файлы к сообщениям
Вы не можете скачивать файлы

!ВНИМАНИЕ!
Сайт не предоставляет электронные версии произведений, а занимается лишь коллекционированием и каталогизацией ссылок, присылаемых и публикуемых на форуме нашими читателями. Если вы являетесь правообладателем какого-либо представленного материала и не желаете, чтобы ссылка на него находилась в нашем каталоге, свяжитесь с нами, и мы незамедлительно удалим ее. Файлы для обмена на трекере предоставлены пользователями сайта, и администрация не несет ответственности за их содержание. Просьба не заливать файлы, защищенные авторскими правами, а также файлы нелегального содержания!