[ Сегодня идет свободное скачивание без начисления Download ]


Статистика раздачи
Нет
 
   
 
Top  
 
 
Красно солнышко / Венька - охотник за шпионами
Жанр: киноповесть, приключения
Год выпуска: 1972
Продолжительность: 01:30:21
Режиссёр: Василий Паскару
В ролях: Игорь Сахаров, Игорь Бочкин, Лена Пяташихина, Таня Баранова, Николай Светлаев, Георгий Юматов, Антонина Максимова, Сергей Реусенко, Герман Юшко, Владимир Горелов, Ия Саввина, Майя Булгакова, Муза Крепкогорская, Леонид Неведомский, Борис Новиков, Николай Граббе, Лариса Пашкова, Борис Юрченко, Владимир Земляникин, Евгений Соляков, Лариса Барабанова, Инга Будкевич, Владимир Смирнов, Герман Качин, Никита Лысенко, Клавдия Хабарова, Олеся Иванова, Михаил Чигарев, Любовь Калюжная, Валентина Березуцкая, Елена Максимова, Елена Вольская, Клавдия Козлёнкова, Тамара Трушина, Юрий Сорокин
Описание: Пионер Веня разыскал могилу пропавшего без вести в годы войны земляка, помог разоблачить военного преступника и, узнав много интересного о боевом прошлом своих односельчан, по-новому оценил тех, кто раньше казался ему самым обыкновенным.
Доп. информация: Запись потока *.ts со спутника EUTELSAT, ремукс в *.mpg программой VideoReDo.
Качество видео: DVB
Формат видео: MPEG-PS
Видео: MPEG Video, 720x576 (4:3), 25,000 кадров/сек, 3947 Кбит/сек
Аудио: MPEG Audio, 48,0 КГц, 192 Кбит/сек, 2 канала

MediaInfo

Общее
Полное имя : E:\Torrent\КРАСНО СОЛНЫШКО\КРАСНО СОЛНЫШКО.mpg
Формат : MPEG-PS
Размер файла : 2,67 Гбайт
Продолжительность : 1 ч. 30 м.
Режим общего битрейта : Переменный
Общий поток : 4223 Кбит/сек
Видео
Идентификатор : 224 (0xE0)
Формат : MPEG Video
Версия формата : Version 2
Профиль формата : Main@Main
Параметр BVOP формата : Да
Параметр матрицы формата : По умолчанию
Параметр GOP формата : M=3, N=12
Продолжительность : 1 ч. 30 м.
Вид битрейта : Переменный
Битрейт : 3947 Кбит/сек
Максимальный битрейт : 5000 Кбит/сек
Ширина : 720 пикселей
Высота : 576 пикселей
Соотношение сторон : 4:3
Частота кадров : 25,000 кадров/сек
Стандарт вещания : PAL
Цветовое пространство : YUV
Субдискретизация насыщенности : 4:2:0
Битовая глубина : 8 бит
Тип развёртки : Чересстрочная
Порядок развёртки : Верхнее поле первое
Метод сжатия : С потерями
Бит/(Пиксели*Кадры) : 0.381
Размер потока : 2,49 Гбайт (93%)
Аудио
Идентификатор : 192 (0xC0)
Формат : MPEG Audio
Версия формата : Version 1
Профиль формата : Layer 2
Продолжительность : 1 ч. 30 м.
Вид битрейта : Постоянный
Битрейт : 192 Кбит/сек
Каналы : 2 канала
Частота : 48,0 КГц
Метод сжатия : С потерями
Размер потока : 124 Мбайт (5%)

Скриншоты

[Цитировать]



Показать сообщения:    

Текущее время: 10-Дек 00:22

Часовой пояс: UTC + 3


Вы не можете начинать темы
Вы не можете отвечать на сообщения
Вы не можете редактировать свои сообщения
Вы не можете удалять свои сообщения
Вы не можете голосовать в опросах
Вы не можете прикреплять файлы к сообщениям
Вы не можете скачивать файлы

!ВНИМАНИЕ!
Сайт не предоставляет электронные версии произведений, а занимается лишь коллекционированием и каталогизацией ссылок, присылаемых и публикуемых на форуме нашими читателями. Если вы являетесь правообладателем какого-либо представленного материала и не желаете, чтобы ссылка на него находилась в нашем каталоге, свяжитесь с нами, и мы незамедлительно удалим ее. Файлы для обмена на трекере предоставлены пользователями сайта, и администрация не несет ответственности за их содержание. Просьба не заливать файлы, защищенные авторскими правами, а также файлы нелегального содержания!