[ Сегодня идет свободное скачивание без начисления Download ]


Статистика раздачи
Нет
 
   
 
Top  
 
 
Юрка - сын командира
Жанр: приключения, семейное кино
Год выпуска: 1984
Продолжительность: 01:09:12
Режиссёр: Николай Лукьянов
В ролях:
Олег Полушкин, Андрей Анкудинов, Евгений Никитин, Светлана Михалькова, Ольга Шувалова, Юрий Казючиц, Раиса Астрединова, Иннокентий Сичкарь, Владимир Трещалов, Иосеб (Иосиф) Джачвлиани, Алексей Колокольцев, Дмитрий Иосифов, Наталья Волчек, Олег Корчиков, Юрий Ступаков...
Описание:
Семилетний Юрка - сын пограничника - переезжает с отцом на белорусскую погранзаставу и в первый же день узнает о том, что здесь нет ни одного сверстника. Случайное знакомство с ефрейтором Шахназаровым выливается в трогательную дружбу. Когда старший друг с тяжелой раной, полученной при задержании преступника, попадает в госпиталь, Юрка, не задумываясь, предлагает свою кровь...
Доп. информация:
Сценарист: Сергей Бодров (ст.)
Оператор: Анатолий Клейменов
Композитор: Владимир Солтан
Художник: Владимир Гавриков
Страна: СССР
Производство: Беларусьфильм
Год: 1984
Премьера: май 1985
Качество видео: TVRip
Формат видео: MPEG-PS
Видео: MPEG2 Video, 720x576 (4:3) 25.00fps, ~4945, 0.477 bit/pixel
Аудио: MPEG Audio, 48000Hz, 2/0 (L,R) ch, 192 Kbps

MediaInfo

Полное имя : G:\DVD\Юрка – сын командира (1984)\Юрка – сын командира.mpg
Формат : MPEG-PS
Размер файла : 2,53 Гбайт
Продолжительность : 1 ч. 9 м.
Общий поток : 5241 Кбит/сек
Видео
Идентификатор : 224 (0xE0)
Формат : MPEG Video
Версия формата : Version 2
Профиль формата : Main@Main
Параметр BVOP формата : Нет
Параметр матрицы формата : По умолчанию
Параметр GOP формата : M=1, N=12
Продолжительность : 1 ч. 9 м.
Вид битрейта : Переменный
Битрейт : 4945 Кбит/сек
Ширина : 720 пикселей
Высота : 576 пикселей
Соотношение сторон : 4:3
Частота кадров : 25,000 кадров/сек
Стандарт вещания : PAL
Цветовое пространство : YUV
Субдискретизация насыщенности : 4:2:0
Битовая глубина : 8 бит
Тип развёртки : Прогрессивная
Метод сжатия : С потерями
Бит/(Пиксели*Кадры) : 0.477
Размер потока : 2,39 Гбайт (94%)
Аудио
Идентификатор : 192 (0xC0)
Формат : MPEG Audio
Версия формата : Version 1
Профиль формата : Layer 2
Продолжительность : 1 ч. 9 м.
Вид битрейта : Постоянный
Битрейт : 192 Кбит/сек
Каналы : 2 канала
Частота : 48,0 КГц
Метод сжатия : С потерями
Размер потока : 95,0 Мбайт (4%)

Скриншоты



[Цитировать]



Показать сообщения:    

Текущее время: 08-Дек 17:14

Часовой пояс: UTC + 3


Вы не можете начинать темы
Вы не можете отвечать на сообщения
Вы не можете редактировать свои сообщения
Вы не можете удалять свои сообщения
Вы не можете голосовать в опросах
Вы не можете прикреплять файлы к сообщениям
Вы не можете скачивать файлы

!ВНИМАНИЕ!
Сайт не предоставляет электронные версии произведений, а занимается лишь коллекционированием и каталогизацией ссылок, присылаемых и публикуемых на форуме нашими читателями. Если вы являетесь правообладателем какого-либо представленного материала и не желаете, чтобы ссылка на него находилась в нашем каталоге, свяжитесь с нами, и мы незамедлительно удалим ее. Файлы для обмена на трекере предоставлены пользователями сайта, и администрация не несет ответственности за их содержание. Просьба не заливать файлы, защищенные авторскими правами, а также файлы нелегального содержания!