[ Сегодня идет свободное скачивание без начисления Download ]


Статистика раздачи
Нет
 
   
 
Top  
 
 
Котёнок
Жанр: мелодрама, фильм о животных
Год выпуска: 1996
Продолжительность: 01:20:16
Режиссёр: Иван Попов
В ролях: Андрей Кузнецов, Людмила Аринина, Алексей Войтюк, Татьяна Грауз, Маша Попова, Саша Попов, Александр Песков, Олег Вершинин, Александр Хургин, Георгий Головенкин, Алексей Зернов, Елена Фадеева, Василий Шималин, Елена Хургина, Алиса Бугайчук, Милана Королькова, Евгений Тетервов, Александр Марьямов, Андрей Звягинцев, Сергей Миронов, Марина Миронова
Описание: В милой интеллигентной семье (папа-музыкант, мама, бабушка, двое детишек) появляется котенок, купленный на Птичьем рынке и названный Тиграшей. Неосторожно выпрыгнув в форточку, малыш оказывается на крыше стоящего под окнами грузовика - и грузовик увозит его в чужой, неведомый мир...
Доп. информация: Запись трансляции ТК "Подмосковье" любезно предоставлена коллегой .
Качество видео: DVB
Формат видео: MPEG-PS
Видео: MPEG Video, 720x576 (4:3), 25,000 кадров/сек, 3968 Кбит/сек
Аудио: MPEG Audio, 48,0 КГц, 128 Кбит/сек, 1 канал

MediaInfo

Общее
Полное имя : E:\Torrent\Котенок\Котенок.mpg
Формат : MPEG-PS
Размер файла : 2,34 Гбайт
Продолжительность : 1 ч. 20 м.
Режим общего битрейта : Переменный
Общий поток : 4180 Кбит/сек
Видео
Идентификатор : 224 (0xE0)
Формат : MPEG Video
Версия формата : Version 2
Профиль формата : Main@Main
Параметр BVOP формата : Да
Параметр матрицы формата : Выборочная
Продолжительность : 1 ч. 20 м.
Вид битрейта : Переменный
Битрейт : 3968 Кбит/сек
Максимальный битрейт : 15,0 Мбит/сек
Ширина : 720 пикселей
Высота : 576 пикселей
Соотношение сторон : 4:3
Частота кадров : 25,000 кадров/сек
Стандарт вещания : PAL
Цветовое пространство : YUV
Субдискретизация насыщенности : 4:2:0
Битовая глубина : 8 бит
Тип развёртки : Чересстрочная
Порядок развёртки : Верхнее поле первое
Метод сжатия : С потерями
Бит/(Пиксели*Кадры) : 0.383
Размер потока : 2,23 Гбайт (95%)
Аудио
Идентификатор : 192 (0xC0)
Формат : MPEG Audio
Версия формата : Version 1
Профиль формата : Layer 2
Продолжительность : 1 ч. 20 м.
Вид битрейта : Постоянный
Битрейт : 128 Кбит/сек
Каналы : 1 канал
Частота : 48,0 КГц
Метод сжатия : С потерями
Размер потока : 73,5 Мбайт (3%)

[Цитировать]



Показать сообщения:    

Текущее время: 09-Дек 10:46

Часовой пояс: UTC + 3


Вы не можете начинать темы
Вы не можете отвечать на сообщения
Вы не можете редактировать свои сообщения
Вы не можете удалять свои сообщения
Вы не можете голосовать в опросах
Вы не можете прикреплять файлы к сообщениям
Вы не можете скачивать файлы

!ВНИМАНИЕ!
Сайт не предоставляет электронные версии произведений, а занимается лишь коллекционированием и каталогизацией ссылок, присылаемых и публикуемых на форуме нашими читателями. Если вы являетесь правообладателем какого-либо представленного материала и не желаете, чтобы ссылка на него находилась в нашем каталоге, свяжитесь с нами, и мы незамедлительно удалим ее. Файлы для обмена на трекере предоставлены пользователями сайта, и администрация не несет ответственности за их содержание. Просьба не заливать файлы, защищенные авторскими правами, а также файлы нелегального содержания!