[ Сегодня идет свободное скачивание без начисления Download ]


Статистика раздачи
Нет
 
   
 
Top  
 
 
Нахалёнок
Жанр: драма
Год выпуска: 1961
Продолжительность: 00:53:52
Режиссёр: Евгений Карелов
В ролях: Вова Семенов, Даниил Нетребин, Вера Бурлакова, Даниил Ильченко, Петр Савин, Владимир Гусев, Виктор Колпаков, Владимир Пицек, Эмма Цесарская, Игорь Савельев, Люся Беспалова, Миша Гаврилин, Павел Винник, Вадим Захарченко, Евгений Моргуно
Описание: Большевик Фома Коршунов возвращается в станицу. Вскоре у его сына, семилетнего Мишки появляется новое прозвище - "коммуненок". Когда в станицу врываются бандиты, Мишка, зная, что красные недалеко, седлает коня и спешит предупредить их об опасности...
Релиз спутникового канала:

Качество видео: DVB
Формат видео: MPEG-PS
Видео: MPEG2 Video, 720x576, 25 fps, 3600 kbps
Аудио: MPEG Audio (Version 1) Layer 2, 2 сh, 48 kHz, 192 kbps

MediaInfo

General
Complete name : D:\Нахаленок (1961)_DVB by SLuMeP.mpg
Format : MPEG-PS
File size : 1.45 GiB
Duration : 53mn 51s
Overall bit rate : 3 851 Kbps
Writing library : (c) 1998-2010 Womble Multimedia, Inc. / MPEG Video Wizard DVD 5.0.0.114 (01/2010) / Apr 20 2010
Video
ID : 224 (0xE0)
Format : MPEG Video
Format version : Version 2
Format profile : Main@Main
Format settings, BVOP : Yes
Format settings, Matrix : Default
Format settings, GOP : M=3, N=12
Duration : 53mn 51s
Bit rate mode : Variable
Bit rate : 3 582 Kbps
Nominal bit rate : 5 000 Kbps
Width : 720 pixels
Height : 576 pixels
Display aspect ratio : 4:3
Frame rate : 25.000 fps
Standard : PAL
Color space : YUV
Chroma subsampling : 4:2:0
Bit depth : 8 bits
Scan type : Interlaced
Scan order : Top Field First
Bits/(Pixel*Frame) : 0.346
Stream size : 1.35 GiB (93%)
Writing library : (c) 1998-2010 Womble Multimedia, Inc. / MPEG Video Wizard DVD 5.0.0.114 (01/2010) / Apr 20 2010
Audio
ID : 192 (0xC0)
Format : MPEG Audio
Format version : Version 1
Format profile : Layer 2
Duration : 53mn 51s
Bit rate mode : Constant
Bit rate : 192 Kbps
Channel(s) : 2 channels
Sampling rate : 48.0 KHz
Video delay : -40ms
Stream size : 74.0 MiB (5%)

Скриншоты

[Цитировать]



Показать сообщения:    

Текущее время: 10-Дек 00:18

Часовой пояс: UTC + 3


Вы не можете начинать темы
Вы не можете отвечать на сообщения
Вы не можете редактировать свои сообщения
Вы не можете удалять свои сообщения
Вы не можете голосовать в опросах
Вы не можете прикреплять файлы к сообщениям
Вы не можете скачивать файлы

!ВНИМАНИЕ!
Сайт не предоставляет электронные версии произведений, а занимается лишь коллекционированием и каталогизацией ссылок, присылаемых и публикуемых на форуме нашими читателями. Если вы являетесь правообладателем какого-либо представленного материала и не желаете, чтобы ссылка на него находилась в нашем каталоге, свяжитесь с нами, и мы незамедлительно удалим ее. Файлы для обмена на трекере предоставлены пользователями сайта, и администрация не несет ответственности за их содержание. Просьба не заливать файлы, защищенные авторскими правами, а также файлы нелегального содержания!