[ Сегодня идет свободное скачивание без начисления Download ]


Статистика раздачи
Нет
 
   
 
Top  
 
 
Сказка. Есть
Жанр: приключения, сказка
Год выпуска: 2012
Продолжительность: 01:31:35
Навигация по главам: есть
Режиссеры: Елизавета Соломина, Константин Статский, Александр Баршак
В ролях: Анфиса Вистингаузен, Елизавета Боярская, Максим Матвеев, Дарья Мороз, Сергей Угрюмов, Светлана Иванова, Михаил Пореченков, Константин Хабенский, Михаил Трухин, Андрей Смоляков, Василий Брыков, Ирина Пегова, Алексей Серебряков, Григорий Сиятвинда, Артур Смольянинов, Петр Скворцов, Михаил Козаков, Ксения Раппопорт, Ангелина Миримская, Гоша Куценко, Сергей Бурунов, Светлана Новикова, Александр Комиссаров, Татьяна Сергеева, Александр Усердин, Ёла Санько, Ирина Никитина, Даниил Усков
Описание: «Сказка. Есть» — это сборник новелл, которые связаны между собой не только общей тематикой. Из одной истории в другую «переходят» некоторые герои — дети. Например, главный герой первой новеллы оказывается соседом основного действующего лица второй, а мальчишки, которые только что пели рэп в третьей «сказке», — хулигански забрасывают камушек в дом, где будет происходить действие четвертой новеллы. Таким образом, все герои — а это реальные дети XXI века — и есть связующая нить истории, объединяющая экранное пространство и время. Финал картины — большой детский праздник в магазине игрушек. Здесь впервые встретятся все герои, их родители — и посмотрят друг другу в глаза...

Релиз: fanatus
Качество видео: BDRip-AVC (исходник - Blu-Ray Disc)
Контейнер: MKV
Видео: MPEG-4 AVC, 800x340 (2.35:1), 24 fps, 2959 kbps, 0.453 bit/pixel
Аудио: русский (AC3, 6 ch, 48 kHz, 448 kbps)

MediaInfo

General
Unique ID : 177818172928815348865337422287561320422 (0x85C688CDC82DAEF589FD507F2EC867E6)
Complete name : D:\Skazka.Est.2012.x264.BDRip.(AVC).fanatus.mkv
Format : Matroska
Format version : Version 2
File size : 2.18 GiB
Duration : 1h 31mn
Overall bit rate : 3 409 Kbps
Movie name : Skazka. Est (2012) - fanatus
Encoded date : UTC 2012-10-07 13:01:44
Writing application : mkvmerge v3.4.0 ('Rapunzel') сборка от May 15 2010 09:38:20
Writing library : libebml v0.8.0 + libmatroska v0.9.0
Video
ID : 1
Format : AVC
Format/Info : Advanced Video Codec
Format profile : High@L4.1
Format settings, CABAC : Yes
Format settings, ReFrames : 10 frames
Codec ID : V_MPEG4/ISO/AVC
Duration : 1h 31mn
Bit rate : 2 959 Kbps
Width : 800 pixels
Height : 340 pixels
Display aspect ratio : 2.35:1
Frame rate : 24.000 fps
Color space : YUV
Chroma subsampling : 4:2:0
Bit depth : 8 bits
Scan type : Progressive
Bits/(Pixel*Frame) : 0.453
Stream size : 1.85 GiB (85%)
Title : Skazka. Est (2012)
Writing library : x264 core 128 r2216 198a7ea
Encoding settings : cabac=1 / ref=10 / deblock=1:-2:-2 / analyse=0x3:0x113 / me=umh / subme=11 / psy=1 / psy_rd=1.00:0.05 / mixed_ref=1 / me_range=48 / chroma_me=1 / trellis=2 / 8x8dct=1 / cqm=0 / deadzone=21,11 / fast_pskip=0 / chroma_qp_offset=-3 / threads=16 / lookahead_threads=2 / sliced_threads=0 / nr=0 / decimate=0 / interlaced=0 / bluray_compat=0 / constrained_intra=0 / bframes=12 / b_pyramid=2 / b_adapt=2 / b_bias=0 / direct=3 / weightb=1 / open_gop=0 / weightp=2 / keyint=240 / keyint_min=24 / scenecut=40 / intra_refresh=0 / rc_lookahead=40 / rc=2pass / mbtree=0 / bitrate=2959 / ratetol=1.0 / qcomp=0.60 / qpmin=0 / qpmax=69 / qpstep=4 / cplxblur=20.0 / qblur=0.5 / vbv_maxrate=50000 / vbv_bufsize=62500 / nal_hrd=none / ip_ratio=1.40 / pb_ratio=1.30 / aq=2:1.00 / zones=123511,131884,q=38
Language : Russian
Default : Yes
Forced : No
Matrix coefficients : BT.709-5, BT.1361, IEC 61966-2-4 709, SMPTE RP177
Audio
ID : 2
Format : AC-3
Format/Info : Audio Coding 3
Mode extension : CM (complete main)
Format settings, Endianness : Big
Codec ID : A_AC3
Duration : 1h 31mn
Bit rate mode : Constant
Bit rate : 448 Kbps
Channel(s) : 6 channels
Channel positions : Front: L C R, Side: L R, LFE
Sampling rate : 48.0 KHz
Bit depth : 16 bits
Compression mode : Lossy
Stream size : 293 MiB (13%)
Title : Original
Language : Russian
Default : Yes
Forced : No
Menu
00:00:00.000 : en:Chapter 01
00:00:00.333 : en:Chapter 02
00:01:57.333 : en:Chapter 03
00:13:40.000 : en:Chapter 04
00:27:05.375 : en:Chapter 05
00:37:06.416 : en:Chapter 06
00:42:42.250 : en:Chapter 07
00:51:29.041 : en:Chapter 08
00:57:17.500 : en:Chapter 09
01:03:33.666 : en:Chapter 10
01:17:31.541 : en:Chapter 11

x264 [info]

---[NoImage] raw [info]: 800x340p 1:1 @ 24/1 fps (cfr)
---[NoImage] x264 [info]: using SAR=1/1
---[NoImage] x264 [info]: using cpu capabilities: MMX2 SSE2Fast FastShuffle SSEMisalign LZCNT
---[NoImage] x264 [info]: profile High, level 4.1
---[NoImage]
---[NoImage] x264 [info]: frame I:916 Avg QP:17.06 size: 64675
---[NoImage] x264 [info]: frame P:32989 Avg QP:20.09 size: 26586
---[NoImage] x264 [info]: frame B:97980 Avg QP:21.61 size: 11189
---[NoImage] x264 [info]: consecutive B-frames: 2.7% 4.2% 11.9% 38.2% 17.3% 18.7% 3.2% 1.4% 0.8% 0.5% 0.3% 0.3% 0.7%
---[NoImage] x264 [info]: mb I I16..4: 11.4% 52.8% 35.9%
---[NoImage] x264 [info]: mb P I16..4: 1.3% 20.6% 6.4% P16..4: 22.4% 29.5% 13.8% 0.0% 0.0% skip: 6.1%
---[NoImage] x264 [info]: mb B I16..4: 0.2% 3.8% 1.3% B16..8: 30.9% 24.3% 5.9% direct:10.7% skip:22.9% L0:37.4% L1:36.9% BI:25.6%
---[NoImage] x264 [info]: 8x8 transform intra:71.5% inter:56.4%
---[NoImage] x264 [info]: direct mvs spatial:92.1% temporal:7.9%
---[NoImage] x264 [info]: coded y,uvDC,uvAC intra: 87.0% 91.9% 80.8% inter: 42.8% 47.4% 28.4%
---[NoImage] x264 [info]: i16 v,h,dc,p: 19% 12% 11% 58%
---[NoImage] x264 [info]: i8 v,h,dc,ddl,ddr,vr,hd,vl,hu: 13% 8% 11% 9% 11% 12% 11% 12% 13%
---[NoImage] x264 [info]: i4 v,h,dc,ddl,ddr,vr,hd,vl,hu: 39% 6% 6% 6% 10% 10% 9% 8% 8%
---[NoImage] x264 [info]: i8c dc,h,v,p: 42% 20% 21% 17%
---[NoImage] x264 [info]: Weighted P-Frames: Y:6.8% UV:4.3%
---[NoImage] x264 [info]: ref P L0: 45.6% 15.6% 16.5% 5.9% 4.8% 3.3% 3.0% 1.7% 1.7% 1.5% 0.3% 0.0%
---[NoImage] x264 [info]: ref B L0: 76.5% 10.8% 4.9% 2.6% 1.8% 1.4% 1.1% 0.5% 0.3%
---[NoImage] x264 [info]: ref B L1: 93.6% 6.4%
---[NoImage] x264 [info]: kb/s:2959.06
---[NoImage] encoded 131885 frames, 15.19 fps, 2959.06 kb/s

Скриншот c названием фильма

Сравнение с исходником

http://screenshotcomparison.com/comparison/149881

[Цитировать]



Показать сообщения:    

Текущее время: 08-Дек 21:16

Часовой пояс: UTC + 3


Вы не можете начинать темы
Вы не можете отвечать на сообщения
Вы не можете редактировать свои сообщения
Вы не можете удалять свои сообщения
Вы не можете голосовать в опросах
Вы не можете прикреплять файлы к сообщениям
Вы не можете скачивать файлы

!ВНИМАНИЕ!
Сайт не предоставляет электронные версии произведений, а занимается лишь коллекционированием и каталогизацией ссылок, присылаемых и публикуемых на форуме нашими читателями. Если вы являетесь правообладателем какого-либо представленного материала и не желаете, чтобы ссылка на него находилась в нашем каталоге, свяжитесь с нами, и мы незамедлительно удалим ее. Файлы для обмена на трекере предоставлены пользователями сайта, и администрация не несет ответственности за их содержание. Просьба не заливать файлы, защищенные авторскими правами, а также файлы нелегального содержания!