[ Сегодня идет свободное скачивание без начисления Download ]


Статистика раздачи
Нет
 
   
 
Top  
 
 
Полоска нескошенных диких цветов Жанр: киноповесть
Год выпуска: 1979
Продолжительность: 01:22:00
Режиссёр: Юрий Ильенко
В ролях: Юрий Маджула, Алексей Черствов, Регимантас Адомайтис, Людмила Ефименко, Зинаида Славина, Юрий Мажуга, Полина Нятко (Табачникова), Василий Фушич, Сергей Бржестовский
Описание: По повести О.Гончара "Бригантина". В одной из школ для трудновоспитуемых оказалось два подростка. У одного из них, Гены, есть отец. Мальчик не смог простить ему второй брак - "предательство" по отношению к погибшей в авиакатастрофе матери. Другой парень - Порфирий - отца своего никогда не видел. В нём сидит злая обида на свою судьбу. Спецшколу он воспринимал сначала как самую тягостную несвободу, трижды пытался бежать. Его ловили. В последний раз Порфирий сбежал вместе с Геной, но теперь мальчики вернулись сами. Не последнюю роль в их решении сыграли ум, такт и доверие, проявленное по отношению к ребятам директором школы, и придуманный им "барьер совести" - полоска нескошенных диких цветов вокруг летнего лагеря, заменившая забор.
Доп. информация: Язык украинский. Субтитры - kingsun
Качество видео: TVRip
Формат видео: AVI
Видео: XviD MPEG-4, 720x528, 2199 kbps avg, 25 fps, 0.231 bit/pixel
Аудио: MPEG Layer 3, 48 kHz, 2 ch. 192.00 kbps avg

MediaInfo

Общее
Полное имя : D:\РАЗДАЧИ\Полоска нескошенных диких цветов\рутрекер\Полоска нескошенных диких цветов 1979\Полоска нескошенных диких цветов (1979).avi
Формат : AVI
Формат/Информация : Audio Video Interleave
Размер файла : 1,38 Гбайт
Продолжительность : 1 ч. 22 м.
Общий поток : 2401 Кбит/сек
Библиотека кодирования : VirtualDub build 31953/release
Видео
Идентификатор : 0
Формат : MPEG-4 Visual
Профиль формата : Advanced Simple@L5
Параметр BVOP формата : 2
Параметр QPel формата : Нет
Параметр GMC формата : Без точки перехода
Параметр матрицы формата : Default (MPEG)
Режим смешивания : Сжатый битовый поток
Идентификатор кодека : XVID
Идентификатор кодека/Подсказка : XviD
Продолжительность : 1 ч. 22 м.
Битрейт : 2199 Кбит/сек
Ширина : 720 пикс.
Высота : 528 пикс.
Соотношение сторон : 4:3
Частота кадров : 25,000 кадр/сек
Цветовое пространство : YUV
Подвыборка цветности : 4:2:0
Битовая глубина : 8 бит
Тип развёртки : Прогрессивная
Метод сжатия : С потерями
Бит/(Пиксели*Кадры) : 0.231
Размер потока : 1,27 Гбайт (92%)
Библиотека кодирования : XviD 64
Аудио
Идентификатор : 1
Формат : MPEG Audio
Версия формата : Version 1
Профиль формата : Layer 3
Режим : Joint stereo
Идентификатор кодека : 55
Идентификатор кодека/Подсказка : MP3
Продолжительность : 1 ч. 22 м.
Вид битрейта : Постоянный
Битрейт : 192 Кбит/сек
Канал(ы) : 2 канала(ов)
Частота : 48,0 КГц
Метод сжатия : С потерями
Задержка видео : 100 мс.
Размер потока : 113 Мбайт (8%)
Выравнивание : Разделение по промежуткам
Продолжительность промежутка : 40 мс. (1,00 видеокадр)
Время предзагрузки промежутка : 500 ms

Фрагмент субтитров

2254117||2256864||Гена, пойми, это твой отец.||
2256865||2258991||Предатель он, предатель.||
2269528||2272609||Да, я знал, он не хотел моих посещений,\~он писал мне об этом.||
2272609||2276098||И все-таки я должен был приехать,\~слово услышать, посмотреть на него,||
2276098||2278984||так почему-то захотелось,\~и вот, такая встреча.||
2278984||2283882||Он считает, что я предал его,\~его мать, и женился во второй раз.||
2283882||2288586||Его мать погибла в автокатастрофе,\~а он думает, что я променял его на мачеху,||
2288586||2291847||и с этого все началось,\~компания хулиганов...||
2291847||2295894||Я боролся, я делал все что мог,\~только бы изменить его микросреду.||
2295960||2298523||Я уехал из столицы, бросил кафедру.||
2298523||2304617||Думаете, так просто для архитектора\~пожертвовать должностью, положением.||
2304617||2305144||Но жертвы оказались напрасными,||
2305144||2306880||опять протоколы, бродяжничество.||
2307346||2311494||Чего ему только не хватало?||
2311494||2315183||Разве что птичьего молока,\~а он не захотел даже посмотреть на меня.||
2315183||2317523||Я знаю, знаю, проблема\~существует тысячелетия,||
2317523||2322460||воспитание - категория вечная,\~но что мне до того.||
2322460||2326845||Мой сын не захотел видеть меня,\~он отвернулся от меня.||
2326845||2332375||Вы профессионал, скажите, почему\~трудных становится все больше и больше,||

Скриншоты

[Цитировать]



Показать сообщения:    

Текущее время: 02-Дек 22:54

Часовой пояс: UTC + 3


Вы не можете начинать темы
Вы не можете отвечать на сообщения
Вы не можете редактировать свои сообщения
Вы не можете удалять свои сообщения
Вы не можете голосовать в опросах
Вы не можете прикреплять файлы к сообщениям
Вы не можете скачивать файлы

!ВНИМАНИЕ!
Сайт не предоставляет электронные версии произведений, а занимается лишь коллекционированием и каталогизацией ссылок, присылаемых и публикуемых на форуме нашими читателями. Если вы являетесь правообладателем какого-либо представленного материала и не желаете, чтобы ссылка на него находилась в нашем каталоге, свяжитесь с нами, и мы незамедлительно удалим ее. Файлы для обмена на трекере предоставлены пользователями сайта, и администрация не несет ответственности за их содержание. Просьба не заливать файлы, защищенные авторскими правами, а также файлы нелегального содержания!