[ Сегодня идет свободное скачивание без начисления Download ]


Статистика раздачи
Нет
 
   
 
Top  
 
 
Переходный возраст
Жанр: детский фильм, семейное кино
Год выпуска: 1968
Продолжительность: 01:28:59
Режиссёр: Ричард Викторов
В ролях: Елена Проклова, Сережа Макеев, Виталий Сегеда, Александр Барский, Лена Беспалова, Игорь Ледогоров, Надежда Семенцова, Олег Мокшанцев, Валентина Ананьина, Мария Барабанова, Сергей Смирнов, Исай Гуров, Юрий Белов
Описание: По мотивам романа В.Киселёва "Девочка и птицелёт"
Четырнадцатилетняя Оля увлекается химией, пишет стихи и мастерит летательный аппарат. Подружившись со второгодником Колей, она помогает ему преодолеть страх, который тот испытывает всякий раз у доски. Они много времени проводят вместе и знают, что нужны друг другу.
Доп. информация: Запись трансляции ТК "Культура" любезно предоставлена коллегой .
Качество видео: DVB
Формат видео: MPEG-PS
Видео: MPEG Video, 720x576 (4 : 3), 25,000 кадров/сек, 5359 Кбит/сек
Аудио: MPEG Audio, 48,0 КГц, 256 Кбит/сек, 2 канала

MediaInfo

Общее
Полное имя : E:\Torrent\Переходный возраст\Переходный возраст.mpg
Формат : MPEG-PS
Размер файла : 3,56 Гбайт
Продолжительность : 1 ч. 28 м.
Режим общего битрейта : Переменный
Общий поток : 5729 Кбит/сек
Видео
Идентификатор : 224 (0xE0)
Формат : MPEG Video
Версия формата : Version 2
Профиль формата : [email protected]
Параметр BVOP формата : Да
Параметр матрицы формата : Выборочная
Продолжительность : 1 ч. 28 м.
Вид битрейта : Переменный
Битрейт : 5359 Кбит/сек
Максимальный битрейт : 10000 Кбит/сек
Ширина : 720 пикселей
Высота : 576 пикселей
Соотношение сторон : 4:3
Частота кадров : 25,000 кадров/сек
Стандарт вещания : PAL
Цветовое пространство : YUV
Субдискретизация насыщенности : 4:2:0
Битовая глубина : 8 бит
Тип развёртки : Чересстрочная
Порядок развёртки : Верхнее поле первое
Метод сжатия : С потерями
Бит/(Пиксели*Кадры) : 0.517
Размер потока : 3,33 Гбайт (94%)
Аудио
Идентификатор : 192 (0xC0)
Формат : MPEG Audio
Версия формата : Version 1
Профиль формата : Layer 2
Продолжительность : 1 ч. 28 м.
Вид битрейта : Постоянный
Битрейт : 256 Кбит/сек
Каналы : 2 канала
Частота : 48,0 КГц
Метод сжатия : С потерями
Задержка видео : 1 мс.
Размер потока : 163 Мбайт (4%)

Скриншоты

[Цитировать]



Показать сообщения:    

Текущее время: 06-Дек 20:58

Часовой пояс: UTC + 3


Вы не можете начинать темы
Вы не можете отвечать на сообщения
Вы не можете редактировать свои сообщения
Вы не можете удалять свои сообщения
Вы не можете голосовать в опросах
Вы не можете прикреплять файлы к сообщениям
Вы не можете скачивать файлы

!ВНИМАНИЕ!
Сайт не предоставляет электронные версии произведений, а занимается лишь коллекционированием и каталогизацией ссылок, присылаемых и публикуемых на форуме нашими читателями. Если вы являетесь правообладателем какого-либо представленного материала и не желаете, чтобы ссылка на него находилась в нашем каталоге, свяжитесь с нами, и мы незамедлительно удалим ее. Файлы для обмена на трекере предоставлены пользователями сайта, и администрация не несет ответственности за их содержание. Просьба не заливать файлы, защищенные авторскими правами, а также файлы нелегального содержания!