[ Сегодня идет свободное скачивание без начисления Download ]


Статистика раздачи
Нет
 
   
 
Top  
 
 
Не болит голова у дятла
Жанр: киноповесть
Год выпуска: 1974
Продолжительность: 01:14:43
Режиссёр: Динара Асанова
В ролях: Александр Жезляев, Елена Цыплакова, Александр Богданов, Ира Обольская, Денис Козлов, Андрей Никитин, Юля Шишкина, Екатерина Васильева, Николай Гринько, Татьяна Волкова, Павел Ростовский, Михаил Светин, Владимир Васильков, Ростислав Чевычелов, Анатолий Коваленко, Борис Лебединский, Эдуард Левкович, Андрей Грецов, В. Гришин
Описание: История о семикласснике Севке Мухине по кличке Муха, не блистающем успехами в школе, но страстно мечтающем стать ударником, целыми днями барабанящем по Бог весть как и из какого мусора собранной ударной установке, вслушивающегося в стук дятла и находящего музыку в скрипе железных ворот, влюблённого в соседку по парте красавицу Иру. Поэтичная, добрая, лиричная — и в то же время, тревожная — картина.
Доп. информация: Коллега продолжает радовать нас своими замечательными записями трансляций ТК "Культура".
Качество видео: DVB
Формат видео: MPEG-PS
Видео: MPEG Video, 720x576 (4:3), 25,000 кадров/сек, 5359 Кбит/сек
Аудио: MPEG Audio, 48,0 КГц, 256 Кбит/сек, 2 канала

MediaInfo

Общее
Полное имя : E:\Torrent\Не болит голова у дятла\Не болит голова у дятла.mpg
Формат : MPEG-PS
Размер файла : 2,99 Гбайт
Продолжительность : 1 ч. 14 м.
Режим общего битрейта : Переменный
Общий поток : 5729 Кбит/сек
Видео
Идентификатор : 224 (0xE0)
Формат : MPEG Video
Версия формата : Version 2
Профиль формата : Main@Main
Параметр BVOP формата : Да
Параметр матрицы формата : Выборочная
Параметр GOP формата : M=2, N=12
Продолжительность : 1 ч. 14 м.
Вид битрейта : Переменный
Битрейт : 5359 Кбит/сек
Максимальный битрейт : 10000 Кбит/сек
Ширина : 720 пикселей
Высота : 576 пикселей
Соотношение сторон : 4:3
Частота кадров : 25,000 кадров/сек
Стандарт вещания : PAL
Цветовое пространство : YUV
Субдискретизация насыщенности : 4:2:0
Битовая глубина : 8 бит
Тип развёртки : Чересстрочная
Порядок развёртки : Верхнее поле первое
Метод сжатия : С потерями
Бит/(Пиксели*Кадры) : 0.517
Размер потока : 2,80 Гбайт (94%)
Аудио
Идентификатор : 192 (0xC0)
Формат : MPEG Audio
Версия формата : Version 1
Профиль формата : Layer 2
Продолжительность : 1 ч. 14 м.
Вид битрейта : Постоянный
Битрейт : 256 Кбит/сек
Каналы : 2 канала
Частота : 48,0 КГц
Метод сжатия : С потерями
Размер потока : 137 Мбайт (4%)

Скриншоты

[Цитировать]



Показать сообщения:    

Текущее время: 08-Дек 05:11

Часовой пояс: UTC + 3


Вы не можете начинать темы
Вы не можете отвечать на сообщения
Вы не можете редактировать свои сообщения
Вы не можете удалять свои сообщения
Вы не можете голосовать в опросах
Вы не можете прикреплять файлы к сообщениям
Вы не можете скачивать файлы

!ВНИМАНИЕ!
Сайт не предоставляет электронные версии произведений, а занимается лишь коллекционированием и каталогизацией ссылок, присылаемых и публикуемых на форуме нашими читателями. Если вы являетесь правообладателем какого-либо представленного материала и не желаете, чтобы ссылка на него находилась в нашем каталоге, свяжитесь с нами, и мы незамедлительно удалим ее. Файлы для обмена на трекере предоставлены пользователями сайта, и администрация не несет ответственности за их содержание. Просьба не заливать файлы, защищенные авторскими правами, а также файлы нелегального содержания!