[ Сегодня идет свободное скачивание без начисления Download ]


Статистика раздачи
Нет
 
   
 
Top  
 
 
Как Я был вундеркиндом
2 серии-Жанр: Детский
Год выпуска: 1983
Продолжительность: 01:04:53 + 01:03:19
Режиссёр: Евгений Марковский
В ролях: Арнас Катинас, Эрнст Романов, Вера Васильева, Николай Гринько, Геннадий Полока, Люда Ревзина, Гедрюс Пускунигис, Дмитрий Харатьян
Описание: По мотивам повести Владимира Машкова.
Школьник Сева Соколов по прозвищу Вундеркинд посещает школу с углубленным изучением английского языка, занимается с репетиторами математикой и музыкой, а с индивидуальным тренером - плаванием. Сева старается везде успевать, но сильно устает, и из-за своей вечной "занятости" почти не видится с родителями. И однажды он решает "уйти из вундеркиндов" и немного пожить жизнью обыкновенного мальчишки. Но вскоре Сева узнает, что из-за его поступка у ни в чем не повинных репетиторов и тренера начались серьезные неприятности...
- -
Качество видео: SATRip
Формат видео: AVI
Видео: 640x480 (1.33:1), 25 fps, XviD build 65 ~1489 kbps avg, 0.19 bit/pixel
Аудио: 48 kHz, MPEG Layer 3, 2 ch, ~128.00 kbps

Дополнительно


Страна: СССР, к/ст. "Беларусьфильм"
сценарий : Владимир Голованов
директор фильма: Любовь Баталова
оператор: Александр Рудь
композитор: Игорь Красильников

Mediainfo

GeneralComplete name                    : Kak.Ya.Byl.Vunderkindom_SATRip.XviD_Olu6ka\Kak.Ya.Byl.Vunderkindom_01.aviFormat                           : AVIFormat/Info                      : Audio Video InterleaveFile size                        : 755 MiBDuration                         : 1h 4mnOverall bit rate                 : 1 628 KbpsMovie name                       : Как я был вундеркиндом - 1 серияWriting application              : VirtualDubMod 1.5.10.3
VideoID : 0Format : MPEG-4 VisualFormat profile : Advanced Simple@L5Format settings, BVOP : YesFormat settings, QPel : NoFormat settings, GMC : No warppointsFormat settings, Matrix : CustomCodec ID : XVIDCodec ID/Hint : XviDDuration : 1h 4mnBit rate : 1 490 KbpsWidth : 640 pixelsHeight : 480 pixelsDisplay aspect ratio : 4:3Frame rate : 25.000 fpsColor space : YUVChroma subsampling : 4:2:0Bit depth : 8 bitsScan type : ProgressiveBits/(Pixel*Frame) : 0.194Stream size : 692 MiB (92%)Writing library : XviD 65
AudioID : 1Format : MPEG AudioFormat version : Version 1Format profile : Layer 3Codec ID : 55Codec ID/Hint : MP3Duration : 1h 4mnBit rate mode : ConstantBit rate : 128 KbpsChannel(s) : 2 channelsSampling rate : 48.0 KHzStream size : 59.4 MiB (8%)Alignment : Aligned on interleavesInterleave, duration : 40 ms (1.00 video frame)Interleave, preload duration : 504 ms

Сравнения

Оба сравниваемых рипа сделаны с худшего исходника
http://screenshotcomparison.com/comparison/156421/picture:1-http://screenshotcomparison.com/comparison/156283/picture:1
Спасибо за ! группы

[Цитировать]



Показать сообщения:    

Текущее время: 10-Дек 17:48

Часовой пояс: UTC + 3


Вы не можете начинать темы
Вы не можете отвечать на сообщения
Вы не можете редактировать свои сообщения
Вы не можете удалять свои сообщения
Вы не можете голосовать в опросах
Вы не можете прикреплять файлы к сообщениям
Вы не можете скачивать файлы

!ВНИМАНИЕ!
Сайт не предоставляет электронные версии произведений, а занимается лишь коллекционированием и каталогизацией ссылок, присылаемых и публикуемых на форуме нашими читателями. Если вы являетесь правообладателем какого-либо представленного материала и не желаете, чтобы ссылка на него находилась в нашем каталоге, свяжитесь с нами, и мы незамедлительно удалим ее. Файлы для обмена на трекере предоставлены пользователями сайта, и администрация не несет ответственности за их содержание. Просьба не заливать файлы, защищенные авторскими правами, а также файлы нелегального содержания!