[ Сегодня идет свободное скачивание без начисления Download ]


Статистика раздачи
Нет
 
   
 
Top  
 
 
Серебряные трубы
Жанр: детский, биография, военный
Год выпуска: 1971
Продолжительность: 1:12:10
Режиссёр: Эдуард Бочаров
В ролях: Андрей Мягков, Андрей Вязников, Лена Сальникова, Иван Лапиков, Алевтина Румянцева, Михаил Яншин, Николай Граббе, Вадим Захарченко, Иван Рыжов, П. Агапова, Игорь Воробьев, Виктор Маркин, Дмитрий Масанов, Николай Парфёнов, Виктория Радунская, Владимир Балашов, Ирина Алфёрова, Станислав Симонов, Николай Смирнов, Иван Жеваго, Анатолий Сахновский
Описание:
Фильм воссоздает некоторые страницы творческой биографии советского писателя Аркадия Гайдара периода 1924-1941 годов.
"Несколько страниц из жизни детского писателя" - так определили сами авторы содержание своей картины. Биографический фильм? Да. Но личность Аркадия Гайдара, характер его книг в какой-то степени определили и характер фильма о нем. Это, если можно так выразиться, опыт романтической кинобиографии, в которой авторы старались не просто изложить известные и неизвестные факты из жизни Гайдара, но и передать особое мироощущение писателя, так поражающее нас в его произведениях.
Качество видео: TVRip
Формат видео: AVI
Видео: 688x528 (4:3), XviD 1.2.1, 25 fps, 1600 kbps
Аудио: МР3, 48.0 KHz, 64.0 Kbps, 1 channel, Constant

MediaInfo

Video
ID : 0
Format : MPEG-4 Visual
Format profile : Advanced Simple@L5
Format settings, BVOP : 3
Format settings, QPel : No
Format settings, GMC : No warppoints
Format settings, Matrix : Default (H.263)
Codec ID : XVID
Codec ID/Hint : XviD
Duration : 1h 12mn
Bit rate : 1 600 Kbps
Width : 688 pixels
Height : 528 pixels
Display aspect ratio : 4:3
Frame rate : 25.000 fps
Color space : YUV
Chroma subsampling : 4:2:0
Bit depth : 8 bits
Scan type : Progressive
Compression mode : Lossy
Bits/(Pixel*Frame) : 0.176
Stream size : 826 MiB (96%)
Writing library : XviD 1.2.1 (UTC 2008-12-04)
Audio
ID : 1
Format : MPEG Audio
Format version : Version 1
Format profile : Layer 3
Codec ID : 55
Codec ID/Hint : MP3
Duration : 1h 12mn
Bit rate mode : Constant
Bit rate : 64.0 Kbps
Channel(s) : 1 channel
Sampling rate : 48.0 KHz
Compression mode : Lossy
Stream size : 33.0 MiB (4%)
Alignment : Aligned on interleaves
Interleave, duration : 40 ms (1.00 video frame)
Interleave, preload duration : 504 ms

Скриншоты


[Цитировать]



Показать сообщения:    

Текущее время: 09-Дек 22:25

Часовой пояс: UTC + 3


Вы не можете начинать темы
Вы не можете отвечать на сообщения
Вы не можете редактировать свои сообщения
Вы не можете удалять свои сообщения
Вы не можете голосовать в опросах
Вы не можете прикреплять файлы к сообщениям
Вы не можете скачивать файлы

!ВНИМАНИЕ!
Сайт не предоставляет электронные версии произведений, а занимается лишь коллекционированием и каталогизацией ссылок, присылаемых и публикуемых на форуме нашими читателями. Если вы являетесь правообладателем какого-либо представленного материала и не желаете, чтобы ссылка на него находилась в нашем каталоге, свяжитесь с нами, и мы незамедлительно удалим ее. Файлы для обмена на трекере предоставлены пользователями сайта, и администрация не несет ответственности за их содержание. Просьба не заливать файлы, защищенные авторскими правами, а также файлы нелегального содержания!