[ Сегодня идет свободное скачивание без начисления Download ]


Статистика раздачи
Нет
 
   
 
Top  
 
 
Пассажир с "Экватора"
Жанр: приключения, шпионский
Год выпуска: 1968
Продолжительность: 01:16:06
Режиссёр: Александр Курочкин
В ролях: Юри Крюков, Юра Пюсс, Слава Цюпа, Витя Морус, Таня Горячкина, Игорь Пушаков, Сережа Макридин, Михаил Волков, Александр Мартынов, Арина Алейникова, Владимир Кенигсон, Юрий Чекулаев, Николай Горлов, Тамара Яренко, Люда Алпатова, Леонид Довлатов, Леонид Окунев, Ира Басаева, Рома Грубман, Вова Казачков, Вова Курочкин, Ильмар Негго, Вова Пшеничный, Саша Турков
Описание: Мальчик Ильмар плывёт вместе со своими друзьями на большом теплоходе под названием «Экватор» на летний отдых в пионерский лагерь на берегу Чёрного моря. Он становится случайным свидетелем того, как иностранный пассажир - "коммерсант", мистер Пипп - тайком спускает в море радиобуй. Заметив мальчика, Пипп сбрасывает его в море...
Качество видео: DVB
Формат видео: MPEG-PS
Видео: MPEG2 Video, 720х576 (4:3), 25 fps, 4076 Kbps
Аудио: MPEG Audio, 192 Kbps, 48.0 KHz, 2 ch

MediaInfo

F:\Пассажир с Экватора.mpg
General
Complete name : F:\Пассажир с Экватора.mpg
Format : MPEG-PS
File size : 2.32 GiB
Duration : 1h 16mn
Overall bit rate mode : Variable
Overall bit rate : 4 354 Kbps
Writing library : (c) 1998-2011 Womble Multimedia, Inc. / MPEG Video Wizard DVD 5.0.1.100 (03/2011) / May 27 2011
Video #224
ID : 224 (0xE0)
Format : MPEG Video
Format version : Version 2
Format profile : Main@Main
Format settings, BVOP : Yes
Format settings, Matrix : Custom
Duration : 1h 16mn
Bit rate mode : Variable
Bit rate : 4 075 Kbps
Maximum bit rate : 15.0 Mbps
Width : 720 pixels
Height : 576 pixels
Display aspect ratio : 4:3
Frame rate : 25.000 fps
Standard : PAL
Color space : YUV
Chroma subsampling : 4:2:0
Bit depth : 8 bits
Compression mode : Lossy
Bits/(Pixel*Frame) : 0.393
Stream size : 2.17 GiB (94%)
Writing library : (c) 1998-2011 Womble Multimedia, Inc. / MPEG Video Wizard DVD 5.0.1.100 (03/2011) / May 27 2011
Audio #192
ID : 192 (0xC0)
Format : MPEG Audio
Format version : Version 1
Format profile : Layer 2
Duration : 1h 16mn
Bit rate mode : Constant
Bit rate : 192 Kbps
Channel(s) : 2 channels
Sampling rate : 48.0 KHz
Compression mode : Lossy
Stream size : 105 MiB (4%)

Скриншоты

[Цитировать]



Показать сообщения:    

Текущее время: 07-Дек 17:32

Часовой пояс: UTC + 3


Вы не можете начинать темы
Вы не можете отвечать на сообщения
Вы не можете редактировать свои сообщения
Вы не можете удалять свои сообщения
Вы не можете голосовать в опросах
Вы не можете прикреплять файлы к сообщениям
Вы не можете скачивать файлы

!ВНИМАНИЕ!
Сайт не предоставляет электронные версии произведений, а занимается лишь коллекционированием и каталогизацией ссылок, присылаемых и публикуемых на форуме нашими читателями. Если вы являетесь правообладателем какого-либо представленного материала и не желаете, чтобы ссылка на него находилась в нашем каталоге, свяжитесь с нами, и мы незамедлительно удалим ее. Файлы для обмена на трекере предоставлены пользователями сайта, и администрация не несет ответственности за их содержание. Просьба не заливать файлы, защищенные авторскими правами, а также файлы нелегального содержания!