[ Today is free to download without increasing Download ]

DL-List and Torrent activity
Пассажир с "Экватора"
Жанр: приключения, шпионский
Год выпуска: 1968
Продолжительность: 01:16:06
Режиссёр: Александр Курочкин
В ролях: Юри Крюков, Юра Пюсс, Слава Цюпа, Витя Морус, Таня Горячкина, Игорь Пушаков, Сережа Макридин, Михаил Волков, Александр Мартынов, Арина Алейникова, Владимир Кенигсон, Юрий Чекулаев, Николай Горлов, Тамара Яренко, Люда Алпатова, Леонид Довлатов, Леонид Окунев, Ира Басаева, Рома Грубман, Вова Казачков, Вова Курочкин, Ильмар Негго, Вова Пшеничный, Саша Турков
Описание: Мальчик Ильмар плывёт вместе со своими друзьями на большом теплоходе под названием «Экватор» на летний отдых в пионерский лагерь на берегу Чёрного моря. Он становится случайным свидетелем того, как иностранный пассажир - "коммерсант", мистер Пипп - тайком спускает в море радиобуй. Заметив мальчика, Пипп сбрасывает его в море...
Качество видео: DVB
Формат видео: MPEG-PS
Видео: MPEG2 Video, 720х576 (4:3), 25 fps, 4076 Kbps
Аудио: MPEG Audio, 192 Kbps, 48.0 KHz, 2 ch


F:\Пассажир с Экватора.mpg
Complete name : F:\Пассажир с Экватора.mpg
Format : MPEG-PS
File size : 2.32 GiB
Duration : 1h 16mn
Overall bit rate mode : Variable
Overall bit rate : 4 354 Kbps
Writing library : (c) 1998-2011 Womble Multimedia, Inc. / MPEG Video Wizard DVD (03/2011) / May 27 2011
Video #224
ID : 224 (0xE0)
Format : MPEG Video
Format version : Version 2
Format profile : Main@Main
Format settings, BVOP : Yes
Format settings, Matrix : Custom
Duration : 1h 16mn
Bit rate mode : Variable
Bit rate : 4 075 Kbps
Maximum bit rate : 15.0 Mbps
Width : 720 pixels
Height : 576 pixels
Display aspect ratio : 4:3
Frame rate : 25.000 fps
Standard : PAL
Color space : YUV
Chroma subsampling : 4:2:0
Bit depth : 8 bits
Compression mode : Lossy
Bits/(Pixel*Frame) : 0.393
Stream size : 2.17 GiB (94%)
Writing library : (c) 1998-2011 Womble Multimedia, Inc. / MPEG Video Wizard DVD (03/2011) / May 27 2011
Audio #192
ID : 192 (0xC0)
Format : MPEG Audio
Format version : Version 1
Format profile : Layer 2
Duration : 1h 16mn
Bit rate mode : Constant
Bit rate : 192 Kbps
Channel(s) : 2 channels
Sampling rate : 48.0 KHz
Compression mode : Lossy
Stream size : 105 MiB (4%)



Display posts:    

Current time is: 24-Oct 21:27

All times are UTC + 3

You cannot post new topics in this forum
You cannot reply to topics in this forum
You cannot edit your posts in this forum
You cannot delete your posts in this forum
You cannot vote in polls in this forum
You cannot attach files in this forum
You cannot download files in this forum

The site does not give electronic versions of products, and is engaged only in a collecting and cataloguing of the references sent and published at a forum by our readers. If you are the legal owner of any submitted material and do not wish that the reference to it was in our catalogue, contact us and we shall immediately remove her. Files for an exchange on tracker are given by users of a site, and the administration does not bear the responsibility for their maintenance. The request to not fill in the files protected by copyrights, and also files of the illegal maintenance!