[ Сегодня идет свободное скачивание без начисления Download ]


Статистика раздачи
Нет
 
   
 
Top  
 
 
Волшебная лампа Аладдина
Жанр: сказка
Год выпуска: 1966
Продолжительность: 01:18:31
Режиссер: Борис Рыцарев
В ролях: Борис Быстров, Додо Чоговадзе, Сарры Каррыев (озвучание - Константин Николаев), Андрей Файт, Отар Коберидзе, Екатерина Верулеишвили, Гусейнага Садыхов, Георгий Милляр, Отар Биланишвили, Валентин Брылеев, Юрий Чекулаев, Яков Беленький, Надежда Семенцова, Михаил Щербаков, Владимир Маслацов, Эммануил Геллер, Николай Горлов, Семен Сафонов, Борис Светлов
Описание: Адаптированная для детей версия сказки "Аладдин и волшебная лампа" из арабско-персидского эпоса "Тысяча и одна ночь". Одна из лучших советских сказочных экранизаций.
Доп. информация: Источник - . Выбор этого источника произведен после сравнения с DVD (). Подробнее под спойлером "сравнения".
Семпл: http://multi-up.com/797660
Качество видео: BDRip-AVC
Формат видео: MKV
Видео: 1280х520 (2.46:1), 25 fps, AVC (H.264) ~2202 kbps avg, 0.132 bit/pixel
Аудио: 48 kHz, AC3, 6 ch, ~448 kbps avg

Медиаинфо

Общее
Уникальный идентификатор : 221309593690015888832825740095714511785 (0xA67EAD66993102E098F8221038DC4BA9)
Полное имя : D:\KINO\Волшебная лампа Аладдина.mkv
Формат : Matroska
Версия формата : Version 2
Размер файла : 1,45 Гбайт
Продолжительность : 1 ч. 18 м.
Общий поток : 2652 Кбит/сек
Дата кодирования : UTC 2012-12-01 18:27:49
Программа кодирования : mkvmerge v4.0.0 ('The Stars were mine') сборка от Jun 6 2010 16:18:42
Библиотека кодирования : libebml v1.0.0 + libmatroska v1.0.0
Видео
Идентификатор : 1
Формат : AVC
Формат/Информация : Advanced Video Codec
Профиль формата : High@L4.1
Параметр CABAC формата : Да
Параметр ReFrames формата : 8 кадров
Идентификатор кодека : V_MPEG4/ISO/AVC
Продолжительность : 1 ч. 18 м.
Битрейт : 2202 Кбит/сек
Ширина : 1280 пикселей
Высота : 520 пикселей
Соотношение сторон : 2,462
Частота кадров : 25,000 кадров/сек
Цветовое пространство : YUV
Субдискретизация насыщенности : 4:2:0
Битовая глубина : 8 бит
Тип развёртки : Прогрессивная
Бит/(Пиксели*Кадры) : 0.132
Размер потока : 1,18 Гбайт (81%)
Библиотека кодирования : x264 core 125 r2200 999b753
Настройки программы : cabac=1 / ref=8 / deblock=1:-2:-1 / analyse=0x3:0x133 / me=umh / subme=9 / psy=1 / psy_rd=1.00:0.00 / mixed_ref=1 / me_range=16 / chroma_me=1 / trellis=2 / 8x8dct=1 / cqm=0 / deadzone=21,11 / fast_pskip=1 / chroma_qp_offset=-2 / threads=3 / lookahead_threads=1 / sliced_threads=0 / nr=0 / decimate=1 / interlaced=0 / bluray_compat=0 / constrained_intra=0 / bframes=3 / b_pyramid=2 / b_adapt=2 / b_bias=0 / direct=3 / weightb=1 / open_gop=0 / weightp=2 / keyint=250 / keyint_min=25 / scenecut=40 / intra_refresh=0 / rc_lookahead=60 / rc=2pass / mbtree=1 / bitrate=2202 / ratetol=1.0 / qcomp=0.60 / qpmin=10 / qpmax=51 / qpstep=4 / cplxblur=20.0 / qblur=0.5 / vbv_maxrate=50000 / vbv_bufsize=50000 / nal_hrd=none / ip_ratio=1.40 / aq=1:1.00
Default : Нет
Forced : Нет
Аудио
Идентификатор : 2
Формат : AC-3
Формат/Информация : Audio Coding 3
Расширение режима : CM (complete main)
Идентификатор кодека : A_AC3
Продолжительность : 1 ч. 18 м.
Вид битрейта : Постоянный
Битрейт : 448 Кбит/сек
Каналы : 6 каналов
Расположение каналов : Front: L C R, Side: L R, LFE
Частота : 48,0 КГц
Битовая глубина : 16 бит
Метод сжатия : С потерями
Размер потока : 252 Мбайт (17%)
Default : Да
Forced : Нет

лог

-[NoImage] avs [info]: 1280x520p 1:1 @ 25/1 fps (cfr)
-[NoImage] x264 [info]: using SAR=1/1
-[NoImage] x264 [info]: using cpu capabilities: MMX2 SSE2Fast FastShuffle SSEMisalign LZCNT
-[NoImage] x264 [info]: profile High, level 4.1
-[NoImage]
-[NoImage] x264 [info]: frame I:711 Avg QP:20.48 size: 52949
-[NoImage] x264 [info]: frame P:31696 Avg QP:21.28 size: 22351
-[NoImage] x264 [info]: frame B:85374 Avg QP:23.47 size: 6454
-[NoImage] x264 [info]: consecutive B-frames: 1.1% 1.9% 15.0% 82.0%
-[NoImage] x264 [info]: mb I I16..4: 6.5% 86.6% 6.9%
-[NoImage] x264 [info]: mb P I16..4: 1.2% 8.6% 0.7% P16..4: 56.4% 17.6% 10.1% 0.4% 0.1% skip: 5.0%
-[NoImage] x264 [info]: mb B I16..4: 0.1% 0.9% 0.1% B16..8: 38.9% 6.2% 1.5% direct: 7.3% skip:45.0% L0:40.0% L1:50.4% BI: 9.6%
-[NoImage] x264 [info]: 8x8 transform intra:83.7% inter:71.9%
-[NoImage] x264 [info]: direct mvs spatial:98.4% temporal:1.6%
-[NoImage] x264 [info]: coded y,uvDC,uvAC intra: 85.5% 62.7% 18.8% inter: 24.5% 33.0% 0.3%
-[NoImage] x264 [info]: i16 v,h,dc,p: 50% 16% 10% 24%
-[NoImage] x264 [info]: i8 v,h,dc,ddl,ddr,vr,hd,vl,hu: 13% 7% 3% 10% 15% 16% 12% 13% 11%
-[NoImage] x264 [info]: i4 v,h,dc,ddl,ddr,vr,hd,vl,hu: 12% 5% 2% 9% 16% 19% 14% 13% 11%
-[NoImage] x264 [info]: i8c dc,h,v,p: 36% 27% 22% 15%
-[NoImage] x264 [info]: Weighted P-Frames: Y:44.7% UV:30.6%
-[NoImage] x264 [info]: ref P L0: 47.1% 14.2% 15.3% 6.8% 4.8% 4.3% 3.6% 2.4% 1.2% 0.2%
-[NoImage] x264 [info]: ref B L0: 83.8% 9.5% 2.7% 1.6% 1.1% 0.9% 0.5%
-[NoImage] x264 [info]: ref B L1: 96.9% 3.1%
-[NoImage] x264 [info]: kb/s:2202.48
-[NoImage] encoded 117781 frames, 4.56 fps, 2202.48 kb/s

сравнения

1. Сравнения источников.
DVD -
BD -
http://screenshotcomparison.com/comparison/161188
http://screenshotcomparison.com/comparison/161194
http://screenshotcomparison.com/comparison/161197
http://screenshotcomparison.com/comparison/161198
http://screenshotcomparison.com/comparison/161199
Из данных сравнений очевидно, что BD не мог быть апскейлом из DVD, так как:
1. BD содержит намного больше текстуры и мелких деталей.
2. Картинка в BD гораздо четче
3. Имеет место полная или частичная фильтрация (затирание) артефактов кинопленки в DVD, присутствующих в BD.
Примечание: версия "апскейла из DVD в BD" была запущена пользователем Sergesha (), подтверждения которой отсутствуют.
Возможно качество видео BD и не соответствует требованиям, однако оно однозначно лучше видео DVD и для рипов предпочтительнее. Судя по артефактам, и BD и DVD сделаны из одного исходника (одной и той же кинокопии). В DVD применена глубокая фильтрация, которая привела к потере текстуры и мелких деталей.
2. Сравнение с DVDRip -
http://screenshotcomparison.com/comparison/161325
http://screenshotcomparison.com/comparison/161326

[Цитировать]



Показать сообщения:    

Текущее время: 27-Июн 23:35

Часовой пояс: UTC + 6


Вы не можете начинать темы
Вы не можете отвечать на сообщения
Вы не можете редактировать свои сообщения
Вы не можете удалять свои сообщения
Вы не можете голосовать в опросах
Вы не можете прикреплять файлы к сообщениям
Вы не можете скачивать файлы

!ВНИМАНИЕ!
Сайт не предоставляет электронные версии произведений, а занимается лишь коллекционированием и каталогизацией ссылок, присылаемых и публикуемых на форуме нашими читателями. Если вы являетесь правообладателем какого-либо представленного материала и не желаете, чтобы ссылка на него находилась в нашем каталоге, свяжитесь с нами, и мы незамедлительно удалим ее. Файлы для обмена на трекере предоставлены пользователями сайта, и администрация не несет ответственности за их содержание. Просьба не заливать файлы, защищенные авторскими правами, а также файлы нелегального содержания!