[ Сегодня идет свободное скачивание без начисления Download ]


Статистика раздачи
Нет
 
   
 
Top  
 
 
Варвара-краса, длинная коса
Жанр: сказка
Год выпуска: 1966
Продолжительность: 01:20:24
Режиссер: Александр Роу
В ролях: Михаил Пуговкин, Георгий Милляр, Анатолий Кубацкий, Лидия Королева, Сергей Николаев, Татьяна Клюева, Варвара Попова, Александр Хвыля, Борис Сичкин, Валентина Ананьина
Описание: Фильм поставлен по мотивам сказки В. А. Жуковского «Сказка о царе Берендее, о добром царе Еремее и злом Чуде-Юде, о любви Варвары-красы к рыбацкому сыну Андрею». "Фирменная" постановка главного советского киносказочника Александр Роу.
Доп. информация: Источник - . Выбор этого источника произведен после сравнения с DVD9 () и DVD5 (). Подробнее под спойлером "сравнения".
Семпл: http://multi-up.com/798381
Качество видео: BDRip-AVC
Формат видео: MKV
Видео: 928х400 (2.32:1), 25 fps, AVC (H.264) ~2418 kbps avg, 0.261 bit/pixel
Аудио: 48 kHz, AC3, 2 ch, ~192 kbps avg

Медиаинфо

Общее
Уникальный идентификатор : 227966856730984983641703207087330932902 (0xAB80D1CF610C7577AAEE7F0125A9B8A6)
Полное имя : D:\KINO\Варвара-краса, длинная коса.mkv
Формат : Matroska
Версия формата : Version 2
Размер файла : 1,47 Гбайт
Продолжительность : 1 ч. 20 м.
Общий поток : 2612 Кбит/сек
Дата кодирования : UTC 2012-12-02 13:59:17
Программа кодирования : mkvmerge v4.0.0 ('The Stars were mine') сборка от Jun 6 2010 16:18:42
Библиотека кодирования : libebml v1.0.0 + libmatroska v1.0.0
Видео
Идентификатор : 1
Формат : AVC
Формат/Информация : Advanced Video Codec
Профиль формата : [email protected]
Параметр CABAC формата : Да
Параметр ReFrames формата : 8 кадров
Идентификатор кодека : V_MPEG4/ISO/AVC
Продолжительность : 1 ч. 20 м.
Битрейт : 2418 Кбит/сек
Ширина : 928 пикселей
Высота : 400 пикселей
Соотношение сторон : 2,35:1
Частота кадров : 25,000 кадров/сек
Цветовое пространство : YUV
Субдискретизация насыщенности : 4:2:0
Битовая глубина : 8 бит
Тип развёртки : Прогрессивная
Бит/(Пиксели*Кадры) : 0.261
Размер потока : 1,33 Гбайт (91%)
Библиотека кодирования : x264 core 125 r2200 999b753
Настройки программы : cabac=1 / ref=8 / deblock=1:-2:-1 / analyse=0x3:0x133 / me=umh / subme=9 / psy=1 / psy_rd=1.00:0.00 / mixed_ref=1 / me_range=16 / chroma_me=1 / trellis=2 / 8x8dct=1 / cqm=0 / deadzone=21,11 / fast_pskip=1 / chroma_qp_offset=-2 / threads=3 / lookahead_threads=1 / sliced_threads=0 / nr=0 / decimate=1 / interlaced=0 / bluray_compat=0 / constrained_intra=0 / bframes=3 / b_pyramid=2 / b_adapt=2 / b_bias=0 / direct=3 / weightb=1 / open_gop=0 / weightp=2 / keyint=250 / keyint_min=25 / scenecut=40 / intra_refresh=0 / rc_lookahead=60 / rc=2pass / mbtree=1 / bitrate=2418 / ratetol=1.0 / qcomp=0.60 / qpmin=10 / qpmax=51 / qpstep=4 / cplxblur=20.0 / qblur=0.5 / vbv_maxrate=50000 / vbv_bufsize=50000 / nal_hrd=none / ip_ratio=1.40 / aq=1:1.00
Default : Нет
Forced : Нет
Аудио
Идентификатор : 2
Формат : AC-3
Формат/Информация : Audio Coding 3
Расширение режима : CM (complete main)
Идентификатор кодека : A_AC3
Продолжительность : 1 ч. 20 м.
Вид битрейта : Постоянный
Битрейт : 192 Кбит/сек
Каналы : 2 канала
Расположение каналов : Front: L R
Частота : 48,0 КГц
Битовая глубина : 16 бит
Метод сжатия : С потерями
Размер потока : 110 Мбайт (7%)
Default : Да
Forced : Нет

Скриншоты

лог

---[NoImage] avs [info]: 928x400p 1:1 @ 25/1 fps (cfr)
---[NoImage] x264 [info]: using SAR=1/1
---[NoImage] x264 [info]: using cpu capabilities: MMX2 SSE2Fast FastShuffle SSEMisalign LZCNT
---[NoImage] x264 [info]: profile High, level 4.1
---[NoImage]
---[NoImage] x264 [info]: frame I:891 Avg QP:19.93 size: 60446
---[NoImage] x264 [info]: frame P:33877 Avg QP:20.66 size: 23506
---[NoImage] x264 [info]: frame B:85843 Avg QP:24.37 size: 7085
---[NoImage] x264 [info]: consecutive B-frames: 2.1% 3.4% 16.7% 77.8%
---[NoImage] x264 [info]: mb I I16..4: 3.0% 87.6% 9.4%
---[NoImage] x264 [info]: mb P I16..4: 0.8% 10.3% 1.2% P16..4: 44.6% 21.9% 15.7% 1.8% 0.4% skip: 3.3%
---[NoImage] x264 [info]: mb B I16..4: 0.0% 1.2% 0.2% B16..8: 37.6% 10.2% 3.4% direct: 8.0% skip:39.3% L0:34.4% L1:44.5% BI:21.2%
---[NoImage] x264 [info]: 8x8 transform intra:83.8% inter:60.3%
---[NoImage] x264 [info]: direct mvs spatial:97.3% temporal:2.7%
---[NoImage] x264 [info]: coded y,uvDC,uvAC intra: 92.7% 80.3% 42.7% inter: 32.8% 34.2% 2.5%
---[NoImage] x264 [info]: i16 v,h,dc,p: 35% 22% 14% 30%
---[NoImage] x264 [info]: i8 v,h,dc,ddl,ddr,vr,hd,vl,hu: 8% 9% 5% 9% 15% 13% 15% 12% 14%
---[NoImage] x264 [info]: i4 v,h,dc,ddl,ddr,vr,hd,vl,hu: 7% 9% 3% 9% 16% 14% 17% 11% 16%
---[NoImage] x264 [info]: i8c dc,h,v,p: 38% 25% 19% 18%
---[NoImage] x264 [info]: Weighted P-Frames: Y:31.4% UV:21.2%
---[NoImage] x264 [info]: ref P L0: 48.3% 14.1% 16.1% 6.2% 4.5% 3.7% 3.4% 2.4% 1.1% 0.2%
---[NoImage] x264 [info]: ref B L0: 85.3% 8.5% 2.5% 1.4% 1.0% 0.8% 0.5%
---[NoImage] x264 [info]: ref B L1: 96.8% 3.2%
---[NoImage] x264 [info]: kb/s:2418.24
---[NoImage] encoded 120611 frames, 6.30 fps, 2418.24 kb/s

Сравнения

1. Сравнения источников.
DVD9 -
DVD5 -
BD -
dvd9
http://screenshotcomparison.com/comparison/161567
http://screenshotcomparison.com/comparison/161569
http://screenshotcomparison.com/comparison/161568
dvd5
http://screenshotcomparison.com/comparison/161571
http://screenshotcomparison.com/comparison/161573
http://screenshotcomparison.com/comparison/161574
BD релиз признан апскейлом, но с чего? Совершенно очевидно, что не с DVD изданий, картинка в которых буквально рассыпается. Видеоматериал в BD возможно не соответствует уровню, но для рипа безусловно лучше.
2. Сравнение с DVDRip-AVC -
http://screenshotcomparison.com/comparison/161631
Примечание: данный DVDRip-AVC является апскейлом
DVDRip-AVC
1306х568
максимально возможная картинка для анаморфного ДВД рипа - 720*(576*16/9)х576=1024х576
кроме того, DAR выбран неверно, но это из-за дефекта самого ДВД издания

[Цитировать]



Показать сообщения:    

Текущее время: 04-Дек 23:26

Часовой пояс: UTC + 3


Вы не можете начинать темы
Вы не можете отвечать на сообщения
Вы не можете редактировать свои сообщения
Вы не можете удалять свои сообщения
Вы не можете голосовать в опросах
Вы не можете прикреплять файлы к сообщениям
Вы не можете скачивать файлы

!ВНИМАНИЕ!
Сайт не предоставляет электронные версии произведений, а занимается лишь коллекционированием и каталогизацией ссылок, присылаемых и публикуемых на форуме нашими читателями. Если вы являетесь правообладателем какого-либо представленного материала и не желаете, чтобы ссылка на него находилась в нашем каталоге, свяжитесь с нами, и мы незамедлительно удалим ее. Файлы для обмена на трекере предоставлены пользователями сайта, и администрация не несет ответственности за их содержание. Просьба не заливать файлы, защищенные авторскими правами, а также файлы нелегального содержания!