[ Today is free to download without increasing Download ]

DL-List and Torrent activity
Жанр: комедия, фильм о животных, короткометражный
Год выпуска: 1966
Продолжительность: 00:06:07
Режиссёр: Людмила Яровенко
В ролях: котёнок Агапыч
Описание: Кортокометражка Новосибирского телевидения о забавном котёнке по кличке Агапыч. Кошатникам усиленно рекомендую.
Доп. информация: Коллега продолжает радовать нас своими замечательными записями.
Качество видео: DVB
Формат видео: MPEG-PS
Видео: MPEG2 Video, 720x576 (4:3), 25,000 кадров/сек, 1847 Кбит/сек
Аудио: MPEG Audio, 48,0 КГц, 192 Кбит/сек, 2 канала


Полное имя : D:\Torrent\Агапыч\Агапыч (Дом кино).mpg
Формат : MPEG-PS
Размер файла : 90,9 Мбайт
Продолжительность : 6 м. 6 с.
Режим общего битрейта : Переменный
Общий поток : 2080 Кбит/сек
Идентификатор : 224 (0xE0)
Формат : MPEG Video
Версия формата : Version 2
Профиль формата : Main@Main
Параметр BVOP формата : Да
Параметр матрицы формата : Выборочная
Параметр GOP формата : M=1, N=9
Продолжительность : 6 м. 6 с.
Вид битрейта : Переменный
Битрейт : 1847 Кбит/сек
Максимальный битрейт : 15,0 Мбит/сек
Ширина : 720 пикселей
Высота : 576 пикселей
Соотношение сторон : 4:3
Частота кадров : 25,000 кадров/сек
Стандарт вещания : PAL
Цветовое пространство : YUV
Субдискретизация насыщенности : 4:2:0
Битовая глубина : 8 бит
Тип развёртки : Чересстрочная
Порядок развёртки : Верхнее поле первое
Метод сжатия : С потерями
Бит/(Пиксели*Кадры) : 0.178
Размер потока : 80,7 Мбайт (89%)
Идентификатор : 192 (0xC0)
Формат : MPEG Audio
Версия формата : Version 1
Профиль формата : Layer 2
Продолжительность : 6 м. 6 с.
Вид битрейта : Постоянный
Битрейт : 192 Кбит/сек
Каналы : 2 канала
Частота : 48,0 КГц
Метод сжатия : С потерями
Размер потока : 8,39 Мбайт (9%)



Display posts:    

Current time is: 27-Oct 19:49

All times are UTC + 3

You cannot post new topics in this forum
You cannot reply to topics in this forum
You cannot edit your posts in this forum
You cannot delete your posts in this forum
You cannot vote in polls in this forum
You cannot attach files in this forum
You cannot download files in this forum

The site does not give electronic versions of products, and is engaged only in a collecting and cataloguing of the references sent and published at a forum by our readers. If you are the legal owner of any submitted material and do not wish that the reference to it was in our catalogue, contact us and we shall immediately remove her. Files for an exchange on tracker are given by users of a site, and the administration does not bear the responsibility for their maintenance. The request to not fill in the files protected by copyrights, and also files of the illegal maintenance!