[ Сегодня идет свободное скачивание без начисления Download ]


Статистика раздачи
Нет
 
   
 
Top  
 
 
Анютина дорога
Жанр: драма, приключения
Год выпуска: 1967
Продолжительность: 01:22:25
Режиссёр: Лев Голуб
[b]В ролях:
Света Коростелина - Анюта
Наталья Чемодурова - мать Анюты
Геннадий Юхтин - отец Анюты
Фёдор Шмаков - дядя Федор
Владимир Емельянов - Платон Павлович
Анатолий Солоницын - начальник продотряда
Анатолий Обухов - атаман Василь
Евгений Полосин
Оля Коршун
Слава Дыриков
Юра Фомин
Саша Солодуха
Анна Дубровина
Валентина Ушакова
Яков Ленц
Валентина Кравченко
Эдуард Дашкевич
Константин Сенкевич
Описание: 1918 год. По дороге из голодающей Москвы в деревню на одной из станций маленькая Анюта отстает от матери. Попав на хутор белорусского кулака, девочка становится невольным участником классовой борьбы в деревне.
Доп. информация:
Сценарий: Кастусь (Константин) Губаревич
Операторы: Виталий Николаев, Юрий Цветков
Художник: Юрий Булычев
Композиторы: Дмитрий Каминский, Ричард Бутвиловский
Производство: "Беларусьфильм"
Награды: специальный диплом «За плодотворную работу в области детского кино» (Лев Голуб) на Кинофестивале республик Прибалтики, Белоруссии и Молдавии (1968)
Качество видео: VHSRip
Формат видео: AVI
Видео: 720x576 (1.25:1), 25 fps, XviD MPEG-4 ~2003 kbps avg, 0.19 bit/pixel
Аудио: 44.100 kHz, MPEG Layer 3, 2 ch, ~128.00 kbps avg

MI

Полное имя : F:\Анютина_дорога.AVI
Формат : AVI
Формат/Информация : Audio Video Interleave
Профиль формата : OpenDML
Размер файла : 1,23 Гбайт
Продолжительность : 1 ч. 22 м.
Общий поток : 2139 Кбит/сек
Видео
Идентификатор : 0
Формат : MPEG-4 Visual
Профиль формата : Simple@L3
Параметр BVOP формата : Нет
Параметр QPel формата : Нет
Параметр GMC формата : Без точки перехода
Параметр матрицы формата : Default (H.263)
Идентификатор кодека : XVID
Идентификатор кодека/Подсказка : XviD
Продолжительность : 1 ч. 22 м.
Битрейт : 2004 Кбит/сек
Ширина : 720 пикселей
Высота : 576 пикселей
Соотношение сторон : 5:4
Частота кадров : 25,000 кадров/сек
Стандарт вещания : PAL
Цветовое пространство : YUV
Субдискретизация насыщенности : 4:2:0
Битовая глубина : 8 бит
Тип развёртки : Прогрессивная
Метод сжатия : С потерями
Бит/(Пиксели*Кадры) : 0.193
Размер потока : 1,15 Гбайт (94%)
Библиотека кодирования : ZJMedia MPEG Encoder
Аудио
Идентификатор : 1
Формат : MPEG Audio
Версия формата : Version 1
Профиль формата : Layer 3
Режим : Joint stereo
Расширение режима : MS Stereo
Идентификатор кодека : 55
Идентификатор кодека/Подсказка : MP3
Продолжительность : 1 ч. 22 м.
Вид битрейта : Постоянный
Битрейт : 128 Кбит/сек
Каналы : 2 канала
Частота : 44,1 КГц
Метод сжатия : С потерями
Размер потока : 75,5 Мбайт (6%)
Выравнивание : Разделение по промежуткам
Продолжительность промежутка : 1000 мс. (25,00 видеокадров)

Скриншоты

[Цитировать]



Показать сообщения:    

Текущее время: 09-Дек 10:46

Часовой пояс: UTC + 3


Вы не можете начинать темы
Вы не можете отвечать на сообщения
Вы не можете редактировать свои сообщения
Вы не можете удалять свои сообщения
Вы не можете голосовать в опросах
Вы не можете прикреплять файлы к сообщениям
Вы не можете скачивать файлы

!ВНИМАНИЕ!
Сайт не предоставляет электронные версии произведений, а занимается лишь коллекционированием и каталогизацией ссылок, присылаемых и публикуемых на форуме нашими читателями. Если вы являетесь правообладателем какого-либо представленного материала и не желаете, чтобы ссылка на него находилась в нашем каталоге, свяжитесь с нами, и мы незамедлительно удалим ее. Файлы для обмена на трекере предоставлены пользователями сайта, и администрация не несет ответственности за их содержание. Просьба не заливать файлы, защищенные авторскими правами, а также файлы нелегального содержания!