[ Сегодня идет свободное скачивание без начисления Download ]


Статистика раздачи
Нет
 
   
 
Top  
 
 
Остров сокровищ (3 серии)
Жанр: приключения
Год выпуска: 1982
Продолжительность: 03:14:04 (01:04:33 + 01:06:21 + 01:03:10)
Режиссёр: Владимир Воробьев
В ролях: Федя Стуков, Олег Борисов, Виктор Костецкий, Владислав Стржельчик, Константин Григорьев, Леонид Марков, Георгий Тейх, Ольга Волкова, Валерий Золотухин, Николай Караченцов, Геннадий Юхтин, Георгий Штиль, Гелий Сысоев, Анатолий Сливников, Андрей Алексеев, Владимир Воробьёв, Николай Крюков, Олег Василюк, Игорь Ефимов, Валерий Козинец, Иосиф Кринский, Николай Кузьмин, Владимир Севостьянихин, Станислав Соколов, Филипп Школьник, Константин Воробьёв, Елена Дриацкая, Виталий Соломин (текст от автора)
Описание: Экранизация одноимённого романа Роберта Льюиса Стивенсона.
Юный Джим Хокинс и его старшие друзья (доктор Ливси и сквайр Трелони) случайно становятся обладателями карты капитана Флинта, на которой указаны координаты острова в Атлантическом океане, где спрятаны сокровища знаменитого пирата. На шхуне «Эспаньола» они начинают опасное плавание к далёкому острову, не догадываясь, кто отправился за сокровищами вместе с ними. Фильм представляет собой почти буквальную экранизацию романа.
Доп. информация: Расширенная версия. Рип с чешского DVD. Данная версия примерно на 10 минут длиннее, в России на DVD не выпускалась.

Исходник:
Качество видео: DVDRip
Формат видео: AVI
Видео:
1 серия - 608x464 (1.31:1), 25 fps, XviD 1.2.1, 935 kbps avg, 0.13 bit/pixel
2 серия - 608x464 (1.31:1), 25 fps, XviD 1.2.1, 938 kbps avg, 0.13 bit/pixel
3 серия - 608x464 (1.31:1), 25 fps, XviD 1.2.1, 938 kbps avg, 0.13 bit/pixel
Аудио: 48 kHz, MPEG Layer 3, 2 ch, 128 kbps avgРелиз группы

MediaInfo

1 серия

General
Complete name                  : C:\Раздачи\Остров сокровищ\1 серия.avi
Format                         : AVI
Format/Info                    : Audio Video Interleave
File size                      : 495 MiB
Duration                       : 1h 4mn
Overall bit rate               : 1 073 Kbps
Writing application            : VirtualDubMod 1.5.10.3 (build 2550/release)
Writing library                : VirtualDubMod build 2550/release
Video
ID                             : 0
Format                         : MPEG-4 Visual
Format profile                 : Advanced Simple@L5
Format settings, BVOP          : 2
Format settings, QPel          : No
Format settings, GMC           : No warppoints
Format settings, Matrix        : Custom
Codec ID                       : XVID
Codec ID/Hint                  : XviD
Duration                       : 1h 4mn
Bit rate                       : 935 Kbps
Width                          : 608 pixels
Height                         : 464 pixels
Display aspect ratio           : 4:3
Frame rate                     : 25.000 fps
Color space                    : YUV
Chroma subsampling             : 4:2:0
Bit depth                      : 8 bits
Scan type                      : Progressive
Compression mode               : Lossy
Bits/(Pixel*Frame)             : 0.133
Stream size                    : 432 MiB (87%)
Writing library                : XviD 1.2.1 (UTC 2008-12-04)
Audio
ID                             : 1
Format                         : MPEG Audio
Format version                 : Version 1
Format profile                 : Layer 3
Codec ID                       : 55
Codec ID/Hint                  : MP3
Duration                       : 1h 4mn
Bit rate mode                  : Constant
Bit rate                       : 128 Kbps
Channel(s)                     : 2 channels
Sampling rate                  : 48.0 KHz
Compression mode               : Lossy
Stream size                    : 59.1 MiB (12%)
Alignment                      : Aligned on interleaves
Interleave, duration           : 40 ms (1.00 video frame)
Interleave, preload duration   : 504 ms
Writing library                : LAME3.99r
Encoding settings              : -m s -V 4 -q 0 -lowpass 17 -b 128

2 серия

General
Complete name                  : C:\Раздачи\Остров сокровищ\2 серия.avi
Format                         : AVI
Format/Info                    : Audio Video Interleave
File size                      : 511 MiB
Duration                       : 1h 6mn
Overall bit rate               : 1 076 Kbps
Writing application            : VirtualDubMod 1.5.10.3 (build 2550/release)
Writing library                : VirtualDubMod build 2550/release
Video
ID                             : 0
Format                         : MPEG-4 Visual
Format profile                 : Advanced Simple@L5
Format settings, BVOP          : 2
Format settings, QPel          : No
Format settings, GMC           : No warppoints
Format settings, Matrix        : Custom
Codec ID                       : XVID
Codec ID/Hint                  : XviD
Duration                       : 1h 6mn
Bit rate                       : 938 Kbps
Width                          : 608 pixels
Height                         : 464 pixels
Display aspect ratio           : 4:3
Frame rate                     : 25.000 fps
Color space                    : YUV
Chroma subsampling             : 4:2:0
Bit depth                      : 8 bits
Scan type                      : Progressive
Compression mode               : Lossy
Bits/(Pixel*Frame)             : 0.133
Stream size                    : 445 MiB (87%)
Writing library                : XviD 1.2.1 (UTC 2008-12-04)
Audio
ID                             : 1
Format                         : MPEG Audio
Format version                 : Version 1
Format profile                 : Layer 3
Codec ID                       : 55
Codec ID/Hint                  : MP3
Duration                       : 1h 6mn
Bit rate mode                  : Constant
Bit rate                       : 128 Kbps
Channel(s)                     : 2 channels
Sampling rate                  : 48.0 KHz
Compression mode               : Lossy
Stream size                    : 60.7 MiB (12%)
Alignment                      : Aligned on interleaves
Interleave, duration           : 40 ms (1.00 video frame)
Interleave, preload duration   : 504 ms
Writing library                : LAME3.99r
Encoding settings              : -m s -V 4 -q 0 -lowpass 17 -b 128

3 серия

General
Complete name                  : C:\Раздачи\Остров сокровищ\3 серия.avi
Format                         : AVI
Format/Info                    : Audio Video Interleave
File size                      : 486 MiB
Duration                       : 1h 3mn
Overall bit rate               : 1 076 Kbps
Writing application            : VirtualDubMod 1.5.10.3 (build 2550/release)
Writing library                : VirtualDubMod build 2550/release
Video
ID                             : 0
Format                         : MPEG-4 Visual
Format profile                 : Advanced Simple@L5
Format settings, BVOP          : 2
Format settings, QPel          : No
Format settings, GMC           : No warppoints
Format settings, Matrix        : Custom
Codec ID                       : XVID
Codec ID/Hint                  : XviD
Duration                       : 1h 3mn
Bit rate                       : 938 Kbps
Width                          : 608 pixels
Height                         : 464 pixels
Display aspect ratio           : 4:3
Frame rate                     : 25.000 fps
Color space                    : YUV
Chroma subsampling             : 4:2:0
Bit depth                      : 8 bits
Scan type                      : Progressive
Compression mode               : Lossy
Bits/(Pixel*Frame)             : 0.133
Stream size                    : 424 MiB (87%)
Writing library                : XviD 1.2.1 (UTC 2008-12-04)
Audio
ID                             : 1
Format                         : MPEG Audio
Format version                 : Version 1
Format profile                 : Layer 3
Codec ID                       : 55
Codec ID/Hint                  : MP3
Duration                       : 1h 3mn
Bit rate mode                  : Constant
Bit rate                       : 128 Kbps
Channel(s)                     : 2 channels
Sampling rate                  : 48.0 KHz
Compression mode               : Lossy
Stream size                    : 57.8 MiB (12%)
Alignment                      : Aligned on interleaves
Interleave, duration           : 40 ms (1.00 video frame)
Interleave, preload duration   : 504 ms
Writing library                : LAME3.99r
Encoding settings              : -m s -V 4 -q 0 -lowpass 17 -b 128

Скриншот c названием фильма

Скриншоты

1 серия- -2 серия- -3 серия-

[Цитировать]



Показать сообщения:    

Текущее время: 08-Дек 09:02

Часовой пояс: UTC + 3


Вы не можете начинать темы
Вы не можете отвечать на сообщения
Вы не можете редактировать свои сообщения
Вы не можете удалять свои сообщения
Вы не можете голосовать в опросах
Вы не можете прикреплять файлы к сообщениям
Вы не можете скачивать файлы

!ВНИМАНИЕ!
Сайт не предоставляет электронные версии произведений, а занимается лишь коллекционированием и каталогизацией ссылок, присылаемых и публикуемых на форуме нашими читателями. Если вы являетесь правообладателем какого-либо представленного материала и не желаете, чтобы ссылка на него находилась в нашем каталоге, свяжитесь с нами, и мы незамедлительно удалим ее. Файлы для обмена на трекере предоставлены пользователями сайта, и администрация не несет ответственности за их содержание. Просьба не заливать файлы, защищенные авторскими правами, а также файлы нелегального содержания!