[ Сегодня идет свободное скачивание без начисления Download ]


Статистика раздачи
Нет
 
   
 
Top  
 
 
Додумался, поздравляю!
Жанр: комедия, детский
Год выпуска: 1976
Продолжительность: 01:21:24
Режиссёр: Эдуард Гаврилов
В ролях: Алексей Ершов, Наталья Тенищева, Юра Юрьев, Люся Мухина, Роман Мадянов, Андрей Карпов, Лена Зубкова, Галина Польских, Олег Анофриев, Оксана Костя, Сергей Молчанов, Игорь Кожевников, Гиули Чохонелидзе (озвучание - Леонид Каневский), Валерий Козинец, Галина Комарова, Любовь Соколова, Ренат Зарипов, Лена Исаева, Андрей Коробов, Гоша Корольков, Лена Скидоненко, Андрей Широков, Елена Санаева, Александр Карпенко, Владимир Качан, Юрий Кузьменков, Рома Трухманов, Дмитрий Мулёв
Описание: Шестиклассник Юра Чернов переезжает с родителями из Москвы на Дальний Восток. Не желая больше быть объектом насмешек, он решает прийти в новый класс с готовым авторитетом и выдумывает себе спортивную биографию со вторым разрядом по боксу...
Исходник:
Семпл: http://multi-up.com/809326
Качество видео: TVRip
Формат видео: AVI
Видео: 672x288 (2.33:1), 25 fps, XviD MPEG-4 ~1051 kbps avg, 0.22 bit/pixel
Аудио: 48 kHz, MPEG Layer 3, 2 ch, ~128-135 kbps avg, VBR

MediaInfo

Полное имя : F:\dod.avi
Формат : AVI
Формат/Информация : Audio Video Interleave
Размер файла : 699 Мбайт
Продолжительность : 1 ч. 21 м.
Режим общего битрейта : Переменный
Общий поток : 1200 Кбит/сек
Программа кодирования : VirtualDubMod 1.5.10.2 (build 2540/release)
Библиотека кодирования : VirtualDubMod build 2540/release
Видео
Идентификатор : 0
Формат : MPEG-4 Visual
Профиль формата : Advanced Simple@L5
Параметр BVOP формата : 1
Параметр QPel формата : Нет
Параметр GMC формата : Без точки перехода
Параметр матрицы формата : Default (H.263)
Идентификатор кодека : XVID
Идентификатор кодека/Подсказка : XviD
Продолжительность : 1 ч. 21 м.
Битрейт : 1052 Кбит/сек
Ширина : 672 пикселя
Высота : 288 пикселей
Соотношение сторон : 2,35:1
Частота кадров : 25,000 кадров/сек
Цветовое пространство : YUV
Субдискретизация насыщенности : 4:2:0
Битовая глубина : 8 бит
Тип развёртки : Прогрессивная
Метод сжатия : С потерями
Бит/(Пиксели*Кадры) : 0.217
Размер потока : 613 Мбайт (88%)
Библиотека кодирования : XviD 64
Аудио
Идентификатор : 1
Формат : MPEG Audio
Версия формата : Version 1
Профиль формата : Layer 3
Режим : Joint stereo
Расширение режима : MS Stereo
Идентификатор кодека : 55
Идентификатор кодека/Подсказка : MP3
Продолжительность : 1 ч. 21 м.
Вид битрейта : Переменный
Битрейт : 135 Кбит/сек
Номинальный битрейт : 128 Кбит/сек
Каналы : 2 канала
Частота : 48,0 КГц
Метод сжатия : С потерями
Размер потока : 78,8 Мбайт (11%)
Выравнивание : Соединение по промежуткам
Продолжительность промежутка : 24 мс. (0,60 видеокадр)
Время предзагрузки промежутка : 493 мс.
Библиотека кодирования : LAME3.90.
Настройки программы : -m j -V 4 -q 2 -lowpass 17.6 --abr 128

Скриншоты

Сравнение

- с конкурентом
http://screenshotcomparison.com/comparison/165920/ + размер файла не соответствует тех. требованиям

[Цитировать]



Показать сообщения:    

Текущее время: 11-Дек 16:57

Часовой пояс: UTC + 3


Вы не можете начинать темы
Вы не можете отвечать на сообщения
Вы не можете редактировать свои сообщения
Вы не можете удалять свои сообщения
Вы не можете голосовать в опросах
Вы не можете прикреплять файлы к сообщениям
Вы не можете скачивать файлы

!ВНИМАНИЕ!
Сайт не предоставляет электронные версии произведений, а занимается лишь коллекционированием и каталогизацией ссылок, присылаемых и публикуемых на форуме нашими читателями. Если вы являетесь правообладателем какого-либо представленного материала и не желаете, чтобы ссылка на него находилась в нашем каталоге, свяжитесь с нами, и мы незамедлительно удалим ее. Файлы для обмена на трекере предоставлены пользователями сайта, и администрация не несет ответственности за их содержание. Просьба не заливать файлы, защищенные авторскими правами, а также файлы нелегального содержания!