[ Сегодня идет свободное скачивание без начисления Download ]


Статистика раздачи
Нет
 
   
 
Top  
 
 
Кешка и спецназ
Жанр: комедия, короткометражный
Год выпуска: 1991
Продолжительность: 00:09:58
Режиссёр: Борис Берзнер
В ролях: Иннокентий Сичкарь, Алексей Булдаков, Александр Аржиловский, Андрей Бубашкин, Алена Иванникова, Александр Лабуш, Светлана Суховей, Иван Мацкевич
Описание: Из-за неисправного будильника Кешка отправляется в школу глубокой ночью и в подъезде встречает квартирных воров. Эта встреча оказывается роковой...
Релиз спутникового канала: "Карусель"

Состав сериала:
1. (1991)
2. (1991)
3. (1991)
4. (1992)
5. (1992)
6. "Кешка и гуманоид" (1993)
7. "Кешка и террористы" (1993)
8. "Кешка и бизнес" (1993)
9. (1993)
Качество видео: DVB
Формат видео: MPEG-PS
Видео: MPEG2 Video, 720x576, 25 fps, 4100 kbps
Аудио: MPEG Audio, 2 сh, 48 kHz, 192 kbps

MediaInfo

General
Complete name : D:\Кешка и спецназ. (1991)_DVB by SLuMeP.mpg
Format : MPEG-PS
File size : 315 MiB
Duration : 9mn 58s
Overall bit rate : 4 415 Kbps
Writing library : (c) 1998-2010 Womble Multimedia, Inc. / MPEG Video Wizard DVD 5.0.0.114 (01/2010) / Apr 20 2010
Video
ID : 224 (0xE0)
Format : MPEG Video
Format version : Version 2
Format profile : [email protected]
Format settings, BVOP : Yes
Format settings, Matrix : Default
Duration : 9mn 58s
Bit rate mode : Variable
Bit rate : 4 136 Kbps
Nominal bit rate : 5 000 Kbps
Width : 720 pixels
Height : 576 pixels
Display aspect ratio : 4:3
Frame rate : 25.000 fps
Standard : PAL
Color space : YUV
Chroma subsampling : 4:2:0
Bit depth : 8 bits
Scan type : Interlaced
Scan order : Top Field First
Bits/(Pixel*Frame) : 0.399
Stream size : 295 MiB (94%)
Writing library : (c) 1998-2010 Womble Multimedia, Inc. / MPEG Video Wizard DVD 5.0.0.114 (01/2010) / Apr 20 2010
Audio
ID : 192 (0xC0)
Format : MPEG Audio
Format version : Version 1
Format profile : Layer 2
Duration : 9mn 58s
Bit rate mode : Constant
Bit rate : 192 Kbps
Channel(s) : 2 channels
Sampling rate : 48.0 KHz
Video delay : -40ms
Stream size : 13.7 MiB (4%)

Скриншоты

[Цитировать]



Показать сообщения:    

Текущее время: 06-Дек 15:11

Часовой пояс: UTC + 3


Вы не можете начинать темы
Вы не можете отвечать на сообщения
Вы не можете редактировать свои сообщения
Вы не можете удалять свои сообщения
Вы не можете голосовать в опросах
Вы не можете прикреплять файлы к сообщениям
Вы не можете скачивать файлы

!ВНИМАНИЕ!
Сайт не предоставляет электронные версии произведений, а занимается лишь коллекционированием и каталогизацией ссылок, присылаемых и публикуемых на форуме нашими читателями. Если вы являетесь правообладателем какого-либо представленного материала и не желаете, чтобы ссылка на него находилась в нашем каталоге, свяжитесь с нами, и мы незамедлительно удалим ее. Файлы для обмена на трекере предоставлены пользователями сайта, и администрация не несет ответственности за их содержание. Просьба не заливать файлы, защищенные авторскими правами, а также файлы нелегального содержания!