[ Сегодня идет свободное скачивание без начисления Download ]


Статистика раздачи
Нет
 
   
 
Top  
 
 
Валерка, Рэмка + ... / Мы сказали клятву
Жанр: лирическая комедия, короткометражный
Год выпуска: 1970
Продолжительность: 00:28:33
Режиссёр: Валентин Козачков
В ролях: Андрюша Громов, Петя Черкашин, Лена Рябухина, Евгений Весник, Муза Крепкогорская, Ольга Кашнева, Галина Бутовская, Андрей Думиника, Ира Зайцева, Вячеслав Жариков, Виктор Плотников
Описание: По мотивам рассказа Радия Погодина. Фильм о первой любви двух мальчиков к соседской девочке. Действие происходит в Одессе.
Релиз спутникового канала: "Карусель"

Качество видео: DVB
Формат видео: MPEG-PS
Видео: MPEG2 Video, 720x576, 25 fps, 4000 kbps
Аудио: MPEG Audio, 2 сh, 48 kHz, 192 kbps

MediaInfo

General
Complete name : D:\Валерка, Рэмка +. (1970)_DVB by SLuMeP.mpg
Format : MPEG-PS
File size : 884 MiB
Duration : 28mn 33s
Overall bit rate : 4 327 Kbps
Writing library : (c) 1998-2010 Womble Multimedia, Inc. / MPEG Video Wizard DVD 5.0.0.114 (01/2010) / Apr 20 2010
Video
ID : 224 (0xE0)
Format : MPEG Video
Format version : Version 2
Format profile : Main@Main
Format settings, BVOP : Yes
Format settings, Matrix : Default
Duration : 28mn 33s
Bit rate mode : Variable
Bit rate : 4 049 Kbps
Nominal bit rate : 5 000 Kbps
Width : 720 pixels
Height : 576 pixels
Display aspect ratio : 4:3
Frame rate : 25.000 fps
Standard : PAL
Color space : YUV
Chroma subsampling : 4:2:0
Bit depth : 8 bits
Scan type : Interlaced
Scan order : Top Field First
Bits/(Pixel*Frame) : 0.391
Stream size : 827 MiB (94%)
Writing library : (c) 1998-2010 Womble Multimedia, Inc. / MPEG Video Wizard DVD 5.0.0.114 (01/2010) / Apr 20 2010
Audio
ID : 192 (0xC0)
Format : MPEG Audio
Format version : Version 1
Format profile : Layer 2
Duration : 28mn 33s
Bit rate mode : Constant
Bit rate : 192 Kbps
Channel(s) : 2 channels
Sampling rate : 48.0 KHz
Video delay : -80ms
Stream size : 39.2 MiB (4%)

Скриншоты

[Цитировать]



Показать сообщения:    

Текущее время: 11-Дек 16:52

Часовой пояс: UTC + 3


Вы не можете начинать темы
Вы не можете отвечать на сообщения
Вы не можете редактировать свои сообщения
Вы не можете удалять свои сообщения
Вы не можете голосовать в опросах
Вы не можете прикреплять файлы к сообщениям
Вы не можете скачивать файлы

!ВНИМАНИЕ!
Сайт не предоставляет электронные версии произведений, а занимается лишь коллекционированием и каталогизацией ссылок, присылаемых и публикуемых на форуме нашими читателями. Если вы являетесь правообладателем какого-либо представленного материала и не желаете, чтобы ссылка на него находилась в нашем каталоге, свяжитесь с нами, и мы незамедлительно удалим ее. Файлы для обмена на трекере предоставлены пользователями сайта, и администрация не несет ответственности за их содержание. Просьба не заливать файлы, защищенные авторскими правами, а также файлы нелегального содержания!