[ Сегодня идет свободное скачивание без начисления Download ]


Статистика раздачи
Нет
 
   
 
Top  
 
 
Сампо
Жанр: эпос, сказка
Год выпуска: 1958
Продолжительность: 01:34:46
Режиссёры: Александр Птушко, Холгер Харривирта
В ролях: Урхо Сомерсальми, Анна Орочко, Андрус Ошинь, Эве Киви, Иван Воронов, Ада Войцик, Георгий Милляр, Михаил Трояновский, Леннарт Лаурамаа, Тойво Ромппайнен, Эмма Хиппеляйнен, Н. Коллен, Анатолий Баранцев, Виктор Уральский, Владимир Борискин, Пётр Модников, Валентин Брылеев, Александр Мачерет, А. Ленская, Кууно Севандер, Еева Мюрюляйнен
Описание: Фильм-сказка по мотивам карело-финского эпоса "Калевала".
Злая Лоухи с помощью волшебного плаща похитила Аннику, сестру кузнеца Ильмаринена. Чтобы спасти сестру, Ильмаринен делает для Лоухи волшебную мельницу Сампо. Теперь народ солнечной Калевалы обездолен. Возлюбленный Анники Лемминкяйнен задумал отобрать у коварной Лоухи Сампо, но это оказалось очень трудной задачей. Много страшных и трагических событий случилось, прежде чем осколок Сампо, добытый Лемминкяйненом, помог вернуть на землю Калевалы солнце, похищенное мерзкой Лоухи, и только тогда здесь воцарились счастье и любовь.
Доп. информация: Запись трансляции ТК "Звезда" любезно предоставлена коллегой ItarTass.
Постер из коллекции советских киноплакатов коллеги tokarevamarina.
Качество видео: DVB
Формат видео: MPEG-PS
Видео: MPEG2 Video, 720х576 (4:3), 25.000 fps, 4058 Kbps
Аудио: MPEG Audio, 48.0 KHz, 192 Kbps, 2 channels

MediaInfo

General
Complete name : D:\Torrent\Сампо\Сампо_(ZVEZDA).mpg
Format : MPEG-PS
File size : 2.87 GiB
Duration : 1h 34mn
Overall bit rate mode : Variable
Overall bit rate : 4 336 Kbps
Video
ID : 224 (0xE0)
Format : MPEG Video
Format version : Version 2
Format profile : Main@Main
Format settings, BVOP : No
Format settings, Matrix : Custom
Format settings, GOP : M=1, N=29
Duration : 1h 34mn
Bit rate mode : Variable
Bit rate : 4 058 Kbps
Maximum bit rate : 15.0 Mbps
Width : 720 pixels
Height : 576 pixels
Display aspect ratio : 4:3
Frame rate : 25.000 fps
Standard : PAL
Color space : YUV
Chroma subsampling : 4:2:0
Bit depth : 8 bits
Scan type : Interlaced
Scan order : Top Field First
Compression mode : Lossy
Bits/(Pixel*Frame) : 0.391
Stream size : 2.69 GiB (94%)
Audio
ID : 192 (0xC0)
Format : MPEG Audio
Format version : Version 1
Format profile : Layer 2
Duration : 1h 34mn
Bit rate mode : Constant
Bit rate : 192 Kbps
Channel(s) : 2 channels
Sampling rate : 48.0 KHz
Compression mode : Lossy
Stream size : 130 MiB (4%)

[Цитировать]



Показать сообщения:    

Текущее время: 11-Дек 11:03

Часовой пояс: UTC + 3


Вы не можете начинать темы
Вы не можете отвечать на сообщения
Вы не можете редактировать свои сообщения
Вы не можете удалять свои сообщения
Вы не можете голосовать в опросах
Вы не можете прикреплять файлы к сообщениям
Вы не можете скачивать файлы

!ВНИМАНИЕ!
Сайт не предоставляет электронные версии произведений, а занимается лишь коллекционированием и каталогизацией ссылок, присылаемых и публикуемых на форуме нашими читателями. Если вы являетесь правообладателем какого-либо представленного материала и не желаете, чтобы ссылка на него находилась в нашем каталоге, свяжитесь с нами, и мы незамедлительно удалим ее. Файлы для обмена на трекере предоставлены пользователями сайта, и администрация не несет ответственности за их содержание. Просьба не заливать файлы, защищенные авторскими правами, а также файлы нелегального содержания!