[ Сегодня идет свободное скачивание без начисления Download ]


Статистика раздачи
Нет
 
   
 
Top  
 
 
Тайна Снежной королевы / Тайна Снежной королевы. Сказка про сказку (2 серии)
Жанр: сказка, экранизация
Год выпуска: 1986
Продолжительность: 01:08:15 + 01:07:54
Режиссёр: Николай Александрович
В ролях: Алиса Фрейндлих, Олег Ефремов, Нина Гомиашвили, Ян Пузыревский, Вия Артмане, Александр Леньков, Леонид Ярмольник, Владимир Качан, Сергей Проханов, Владимир Виноградов, Владислав Стржельчик, Людмила Макарова, Всеволод Ларионов, Михаил Богдасаров, Пётр Складчиков, Александр Пятков, Наталия Трубникова
Описание: Фильм-сказка, повествующий о необыкновенном путешествии скромной маленькой девочки Герды. Она разыскивает своего друга Кая, которого похитила и унесла в свое царство Снежная королева - могущественная злая волшебница. По дороге к Снежной королеве Герда попадает в замок к хитрому, коварному и в то же время смешному королю, знакомится с лесными разбойниками. На пути у девочки будет много преград, но верное сердце Герды одолеет все преграды...
Доп. информация: Запись потока со спутника EUTELSAT, ремукс в *.mpg программой VideoReDo.
Формат видео: MPEG-PS
Видео: MPEG2 Video, 720х576 (4:3), 25.000 fps, 4833 Kbps
Аудио: MPEG Audio, 48.0 KHz, 192 Kbps, 2 channels

Сравнение

http://imgur.com/a/IS2zN

MediaInfo

General
Complete name : D:\Torrent\ТАЙНА СНЕЖНОЙ КОРОЛЕВЫ\ТАЙНА СНЕЖНОЙ КОРОЛЕВЫ 1 (Ностальгия).mpg
Format : MPEG-PS
File size : 2.44 GiB
Duration : 1h 8mn
Overall bit rate mode : Variable
Overall bit rate : 5 127 Kbps
Video
ID : 224 (0xE0)
Format : MPEG Video
Format version : Version 2
Format profile : Main@Main
Format settings, BVOP : Yes
Format settings, Matrix : Custom
Format settings, GOP : M=3, N=36
Duration : 1h 8mn
Bit rate mode : Variable
Bit rate : 4 833 Kbps
Maximum bit rate : 15.0 Mbps
Width : 720 pixels
Height : 576 pixels
Display aspect ratio : 4:3
Frame rate : 25.000 fps
Standard : PAL
Color space : YUV
Chroma subsampling : 4:2:0
Bit depth : 8 bits
Scan type : Interlaced
Scan order : Top Field First
Compression mode : Lossy
Bits/(Pixel*Frame) : 0.466
Stream size : 2.30 GiB (94%)
Audio
ID : 192 (0xC0)
Format : MPEG Audio
Format version : Version 1
Format profile : Layer 2
Duration : 1h 8mn
Bit rate mode : Constant
Bit rate : 192 Kbps
Channel(s) : 2 channels
Sampling rate : 48.0 KHz
Compression mode : Lossy
Stream size : 93.7 MiB (4%)
General
Complete name : D:\Torrent\ТАЙНА СНЕЖНОЙ КОРОЛЕВЫ\ТАЙНА СНЕЖНОЙ КОРОЛЕВЫ 2 (Ностальгия).mpg
Format : MPEG-PS
File size : 2.43 GiB
Duration : 1h 7mn
Overall bit rate mode : Variable
Overall bit rate : 5 127 Kbps
Video
ID : 224 (0xE0)
Format : MPEG Video
Format version : Version 2
Format profile : Main@Main
Format settings, BVOP : Yes
Format settings, Matrix : Custom
Format settings, GOP : M=2, N=36
Duration : 1h 7mn
Bit rate mode : Variable
Bit rate : 4 833 Kbps
Maximum bit rate : 15.0 Mbps
Width : 720 pixels
Height : 576 pixels
Display aspect ratio : 4:3
Frame rate : 25.000 fps
Standard : PAL
Color space : YUV
Chroma subsampling : 4:2:0
Bit depth : 8 bits
Scan type : Interlaced
Scan order : Top Field First
Compression mode : Lossy
Bits/(Pixel*Frame) : 0.466
Stream size : 2.29 GiB (94%)
Audio
ID : 192 (0xC0)
Format : MPEG Audio
Format version : Version 1
Format profile : Layer 2
Duration : 1h 7mn
Bit rate mode : Constant
Bit rate : 192 Kbps
Channel(s) : 2 channels
Sampling rate : 48.0 KHz
Compression mode : Lossy
Stream size : 93.2 MiB (4%)
05.01.13 ТОРРЕНТ ОБНОВЛЕН, ФАЙЛ 2-Й СЕРИИ ЗАМЕНЕН НА ВИДЕО НОРМАЛЬНОГО КАЧЕСТВА

[Цитировать]



Показать сообщения:    

Текущее время: 09-Дек 08:51

Часовой пояс: UTC + 3


Вы не можете начинать темы
Вы не можете отвечать на сообщения
Вы не можете редактировать свои сообщения
Вы не можете удалять свои сообщения
Вы не можете голосовать в опросах
Вы не можете прикреплять файлы к сообщениям
Вы не можете скачивать файлы

!ВНИМАНИЕ!
Сайт не предоставляет электронные версии произведений, а занимается лишь коллекционированием и каталогизацией ссылок, присылаемых и публикуемых на форуме нашими читателями. Если вы являетесь правообладателем какого-либо представленного материала и не желаете, чтобы ссылка на него находилась в нашем каталоге, свяжитесь с нами, и мы незамедлительно удалим ее. Файлы для обмена на трекере предоставлены пользователями сайта, и администрация не несет ответственности за их содержание. Просьба не заливать файлы, защищенные авторскими правами, а также файлы нелегального содержания!