[ Сегодня идет свободное скачивание без начисления Download ]


Статистика раздачи
Нет
 
   
 
Top  
 
 
Приключения Буратино (2 серии)
Жанр: сказка, музыкальный
Год выпуска: 1975
Продолжительность: 01:05:01 + 01:07:55
Режиссёр: Леонид Нечаев
В ролях: Дмитрий Иосифов, Татьяна Проценко, Рома Столкарц, Томас Аугустинас, Григорий Светлорусов, Николай Гринько, Владимир Этуш, Владимир Басов, Елена Санаева, Ролан Быков, Рина Зелёная, Юрий Катин-Ярцев, Баадур Цуладзе,Валентин Букин, Михаил Петров, Юрий Баталов, Владимир Грицевский, Вася Чумаков
Описание: "На дурака не нужен нож: ему немного подпоешь - и делай с ним, что хошь!.." Деревянный человечек, которого Папа Карло выстругал из полена, получился веселым, дерзким, шумным и доверчивым. Лиса Алиса и Кот Базилио завели его в Страну дураков, но мудрая Черепаха Тортилла помогла Буратино найти Золотой Ключик, потому что он был ужасно обаятельным...
Доп. информация: Запись трансляции ТК "Россия К" любезно предоставлена коллегой TarasBilbo.
Качество видео: DVB
Формат видео: MPEG-PS
Видео: MPEG2 Video, 720х576 (4:3), 25.000 fps, 5323 Kbps
Аудио: MPEG Audio, 48.0 KHz, 256 Kbps, 2 channels

MediaInfo

General
Complete name : D:\Torrent\Приключения Буратино\Приключения Буратино (1-я серия) (Россия К).mpg
Format : MPEG-PS
File size : 2.59 GiB
Duration : 1h 5mn
Overall bit rate mode : Variable
Overall bit rate : 5 693 Kbps
Video
ID : 224 (0xE0)
Format : MPEG Video
Format version : Version 2
Format profile : Main@Main
Format settings, BVOP : Yes
Format settings, Matrix : Custom
Duration : 1h 5mn
Bit rate mode : Variable
Bit rate : 5 323 Kbps
Maximum bit rate : 15.0 Mbps
Width : 720 pixels
Height : 576 pixels
Display aspect ratio : 4:3
Frame rate : 25.000 fps
Standard : PAL
Color space : YUV
Chroma subsampling : 4:2:0
Bit depth : 8 bits
Scan type : Interlaced
Scan order : Top Field First
Compression mode : Lossy
Bits/(Pixel*Frame) : 0.513
Stream size : 2.42 GiB (94%)
Audio
ID : 192 (0xC0)
Format : MPEG Audio
Format version : Version 1
Format profile : Layer 2
Duration : 1h 5mn
Bit rate mode : Constant
Bit rate : 256 Kbps
Channel(s) : 2 channels
Sampling rate : 48.0 KHz
Compression mode : Lossy
Stream size : 119 MiB (4%)
General
Complete name : D:\Torrent\Приключения Буратино\Приключения Буратино (2-я серия) (Россия К).mpg
Format : MPEG-PS
File size : 2.70 GiB
Duration : 1h 7mn
Overall bit rate mode : Variable
Overall bit rate : 5 693 Kbps
Video
ID : 224 (0xE0)
Format : MPEG Video
Format version : Version 2
Format profile : Main@Main
Format settings, BVOP : Yes
Format settings, Matrix : Custom
Duration : 1h 7mn
Bit rate mode : Variable
Bit rate : 5 323 Kbps
Maximum bit rate : 15.0 Mbps
Width : 720 pixels
Height : 576 pixels
Display aspect ratio : 4:3
Frame rate : 25.000 fps
Standard : PAL
Color space : YUV
Chroma subsampling : 4:2:0
Bit depth : 8 bits
Scan type : Interlaced
Scan order : Top Field First
Compression mode : Lossy
Bits/(Pixel*Frame) : 0.513
Stream size : 2.53 GiB (94%)
Audio
ID : 192 (0xC0)
Format : MPEG Audio
Format version : Version 1
Format profile : Layer 2
Duration : 1h 7mn
Bit rate mode : Constant
Bit rate : 256 Kbps
Channel(s) : 2 channels
Sampling rate : 48.0 KHz
Compression mode : Lossy
Stream size : 124 MiB (4%)

[Цитировать]



Показать сообщения:    

Текущее время: 09-Дек 14:39

Часовой пояс: UTC + 3


Вы не можете начинать темы
Вы не можете отвечать на сообщения
Вы не можете редактировать свои сообщения
Вы не можете удалять свои сообщения
Вы не можете голосовать в опросах
Вы не можете прикреплять файлы к сообщениям
Вы не можете скачивать файлы

!ВНИМАНИЕ!
Сайт не предоставляет электронные версии произведений, а занимается лишь коллекционированием и каталогизацией ссылок, присылаемых и публикуемых на форуме нашими читателями. Если вы являетесь правообладателем какого-либо представленного материала и не желаете, чтобы ссылка на него находилась в нашем каталоге, свяжитесь с нами, и мы незамедлительно удалим ее. Файлы для обмена на трекере предоставлены пользователями сайта, и администрация не несет ответственности за их содержание. Просьба не заливать файлы, защищенные авторскими правами, а также файлы нелегального содержания!