[ Today is free to download without increasing Download ]

DL-List and Torrent activity
Стальное колечко
Жанр: детский
Год выпуска: 1971
Продолжительность: 00:28:26
Режиссёр: Анатолий Кирик
В ролях: Анна Левченко, Олег Жаков, Николай Гринько
Описание: По мотивам одноименной сказки Константина Паустовского.
Дед Кузьма жил со своей внучкой Варюшей в деревушке Моховое, у самого леса.
Зима выдалась суровая, с сильным ветром и снегом. За всю зиму ни разу не потеплело и не закапала с тесовых крыш суетливая талая вода. Ночью в лесу выли продрогшие волки. Дед Кузьма говорил, что они воют от зависти к людям: волку тоже охота пожить в избе, почесаться и полежать у печки, отогреть заледенелую косматую шкуру.
Доп. информация: Запись потока со спутника EUTELSAT, ремукс в *.mpg программой VideoReDo.
Качество видео: DVB
Формат видео: MPEG-PS
Видео: MPEG2 Video, 720х576 (4:3), 25.000 fps, 3 553 Kbps
Аудио: MPEG Audio, 48.0 KHz, 192 Kbps, 2 channels


Complete name : D:\Torrent\СТАЛЬНОЕ КОЛЕЧКО\СТАЛЬНОЕ КОЛЕЧКО (Дом Кино).mpg
Format : MPEG-PS
File size : 777 MiB
Duration : 28mn 26s
Overall bit rate mode : Variable
Overall bit rate : 3 821 Kbps
ID : 224 (0xE0)
Format : MPEG Video
Format version : Version 2
Format profile : Main@Main
Format settings, BVOP : Yes
Format settings, Matrix : Custom
Duration : 28mn 26s
Bit rate mode : Variable
Bit rate : 3 553 Kbps
Maximum bit rate : 5 000 Kbps
Width : 720 pixels
Height : 576 pixels
Display aspect ratio : 4:3
Frame rate : 25.000 fps
Standard : PAL
Color space : YUV
Chroma subsampling : 4:2:0
Bit depth : 8 bits
Scan type : Interlaced
Scan order : Top Field First
Compression mode : Lossy
Bits/(Pixel*Frame) : 0.343
Stream size : 723 MiB (93%)
ID : 192 (0xC0)
Format : MPEG Audio
Format version : Version 1
Format profile : Layer 2
Duration : 28mn 26s
Bit rate mode : Constant
Bit rate : 192 Kbps
Channel(s) : 2 channels
Sampling rate : 48.0 KHz
Compression mode : Lossy
Stream size : 39.0 MiB (5%)


Display posts:    

Current time is: 23-Oct 00:33

All times are UTC + 3

You cannot post new topics in this forum
You cannot reply to topics in this forum
You cannot edit your posts in this forum
You cannot delete your posts in this forum
You cannot vote in polls in this forum
You cannot attach files in this forum
You cannot download files in this forum

The site does not give electronic versions of products, and is engaged only in a collecting and cataloguing of the references sent and published at a forum by our readers. If you are the legal owner of any submitted material and do not wish that the reference to it was in our catalogue, contact us and we shall immediately remove her. Files for an exchange on tracker are given by users of a site, and the administration does not bear the responsibility for their maintenance. The request to not fill in the files protected by copyrights, and also files of the illegal maintenance!