[ Сегодня идет свободное скачивание без начисления Download ]


Статистика раздачи
Нет
 
   
 
Top  
 
 
Стальное колечко
Жанр: детский
Год выпуска: 1971
Продолжительность: 00:28:26
Режиссёр: Анатолий Кирик
В ролях: Анна Левченко, Олег Жаков, Николай Гринько
Описание: По мотивам одноименной сказки Константина Паустовского.
Дед Кузьма жил со своей внучкой Варюшей в деревушке Моховое, у самого леса.
Зима выдалась суровая, с сильным ветром и снегом. За всю зиму ни разу не потеплело и не закапала с тесовых крыш суетливая талая вода. Ночью в лесу выли продрогшие волки. Дед Кузьма говорил, что они воют от зависти к людям: волку тоже охота пожить в избе, почесаться и полежать у печки, отогреть заледенелую косматую шкуру.
Доп. информация: Запись потока со спутника EUTELSAT, ремукс в *.mpg программой VideoReDo.
Качество видео: DVB
Формат видео: MPEG-PS
Видео: MPEG2 Video, 720х576 (4:3), 25.000 fps, 3 553 Kbps
Аудио: MPEG Audio, 48.0 KHz, 192 Kbps, 2 channels

MediaInfo

General
Complete name : D:\Torrent\СТАЛЬНОЕ КОЛЕЧКО\СТАЛЬНОЕ КОЛЕЧКО (Дом Кино).mpg
Format : MPEG-PS
File size : 777 MiB
Duration : 28mn 26s
Overall bit rate mode : Variable
Overall bit rate : 3 821 Kbps
Video
ID : 224 (0xE0)
Format : MPEG Video
Format version : Version 2
Format profile : Main@Main
Format settings, BVOP : Yes
Format settings, Matrix : Custom
Duration : 28mn 26s
Bit rate mode : Variable
Bit rate : 3 553 Kbps
Maximum bit rate : 5 000 Kbps
Width : 720 pixels
Height : 576 pixels
Display aspect ratio : 4:3
Frame rate : 25.000 fps
Standard : PAL
Color space : YUV
Chroma subsampling : 4:2:0
Bit depth : 8 bits
Scan type : Interlaced
Scan order : Top Field First
Compression mode : Lossy
Bits/(Pixel*Frame) : 0.343
Stream size : 723 MiB (93%)
Audio
ID : 192 (0xC0)
Format : MPEG Audio
Format version : Version 1
Format profile : Layer 2
Duration : 28mn 26s
Bit rate mode : Constant
Bit rate : 192 Kbps
Channel(s) : 2 channels
Sampling rate : 48.0 KHz
Compression mode : Lossy
Stream size : 39.0 MiB (5%)

[Цитировать]



Показать сообщения:    

Текущее время: 08-Дек 14:59

Часовой пояс: UTC + 3


Вы не можете начинать темы
Вы не можете отвечать на сообщения
Вы не можете редактировать свои сообщения
Вы не можете удалять свои сообщения
Вы не можете голосовать в опросах
Вы не можете прикреплять файлы к сообщениям
Вы не можете скачивать файлы

!ВНИМАНИЕ!
Сайт не предоставляет электронные версии произведений, а занимается лишь коллекционированием и каталогизацией ссылок, присылаемых и публикуемых на форуме нашими читателями. Если вы являетесь правообладателем какого-либо представленного материала и не желаете, чтобы ссылка на него находилась в нашем каталоге, свяжитесь с нами, и мы незамедлительно удалим ее. Файлы для обмена на трекере предоставлены пользователями сайта, и администрация не несет ответственности за их содержание. Просьба не заливать файлы, защищенные авторскими правами, а также файлы нелегального содержания!