[ Сегодня идет свободное скачивание без начисления Download ]


Статистика раздачи
Буду качать: [ 1 ]
 
   
 
Top  
 
 
По секрету всему свету (2 серии)
Жанр: детский
Год выпуска: 1976
Продолжительность: 00:59:11 + 00:59:44
Режиссёр: Игорь Добролюбов, Юрий Оксанченко, Владислав Попов, Дмитрий Михлеев, Виталий Каневский
В ролях: Владимир Станкевич, Алеша Сазонов, Георгий (Жора) Белов, Александр Леньков, Валентина Теличкина, Федор Никитин, Александра Климова, Лия Ахеджакова, Регина Корохова, Анатолий Столбов, Аркадий Трусов, Саша Шерстобаев, Борис Гитин, Сережа Беляк, Анатолий Кузнецов, Александр Гай
Описание: Телефильм по мотивам книги В. Драгунского "Денискины рассказы".
Смешные и удивительные истории, приключившиеся с маленьким мальчиком Дениской, его родителями и друзьями.
Доп. информация: Запись трансляции ТК "Россия К" любезно предоставлена коллегой TarasBilbo.
Постер от коллеги GUDWIN67
Качество видео: DVB
Формат видео: MPEG-PS
Видео: MPEG2 Video, 720х576 (4:3), 25.000 fps, 5323 Kbps
Аудио: MPEG Audio, 48.0 KHz, 256 Kbps, 2 channels

MediaInfo

General
Complete name : D:\Torrent\По секрету всему свету\По секрету всему свету (1-я серия) (Россия К).mpg
Format : MPEG-PS
File size : 2.35 GiB
Duration : 59mn 10s
Overall bit rate mode : Variable
Overall bit rate : 5 693 Kbps
Video
ID : 224 (0xE0)
Format : MPEG Video
Format version : Version 2
Format profile : Main@Main
Format settings, BVOP : Yes
Format settings, Matrix : Custom
Duration : 59mn 10s
Bit rate mode : Variable
Bit rate : 5 323 Kbps
Maximum bit rate : 15.0 Mbps
Width : 720 pixels
Height : 576 pixels
Display aspect ratio : 4:3
Frame rate : 25.000 fps
Standard : PAL
Color space : YUV
Chroma subsampling : 4:2:0
Bit depth : 8 bits
Scan type : Interlaced
Scan order : Top Field First
Compression mode : Lossy
Bits/(Pixel*Frame) : 0.513
Stream size : 2.20 GiB (94%)
Audio
ID : 192 (0xC0)
Format : MPEG Audio
Format version : Version 1
Format profile : Layer 2
Duration : 59mn 10s
Bit rate mode : Constant
Bit rate : 256 Kbps
Channel(s) : 2 channels
Sampling rate : 48.0 KHz
Compression mode : Lossy
Stream size : 108 MiB (4%)
General
Complete name : D:\Torrent\По секрету всему свету\По секрету всему свету (2-я серия) (Россия К).mpg
Format : MPEG-PS
File size : 2.38 GiB
Duration : 59mn 44s
Overall bit rate mode : Variable
Overall bit rate : 5 692 Kbps
Video
ID : 224 (0xE0)
Format : MPEG Video
Format version : Version 2
Format profile : Main@Main
Format settings, BVOP : Yes
Format settings, Matrix : Custom
Format settings, GOP : M=3, N=15
Duration : 59mn 44s
Bit rate mode : Variable
Bit rate : 5 323 Kbps
Maximum bit rate : 15.0 Mbps
Width : 720 pixels
Height : 576 pixels
Display aspect ratio : 4:3
Frame rate : 25.000 fps
Standard : PAL
Color space : YUV
Chroma subsampling : 4:2:0
Bit depth : 8 bits
Scan type : Interlaced
Scan order : Top Field First
Compression mode : Lossy
Bits/(Pixel*Frame) : 0.513
Stream size : 2.22 GiB (94%)
Audio
ID : 192 (0xC0)
Format : MPEG Audio
Format version : Version 1
Format profile : Layer 2
Duration : 59mn 44s
Bit rate mode : Constant
Bit rate : 256 Kbps
Channel(s) : 2 channels
Sampling rate : 48.0 KHz
Compression mode : Lossy
Stream size : 109 MiB (4%)

[Цитировать]



Показать сообщения:    

Текущее время: 10-Дек 19:42

Часовой пояс: UTC + 3


Вы не можете начинать темы
Вы не можете отвечать на сообщения
Вы не можете редактировать свои сообщения
Вы не можете удалять свои сообщения
Вы не можете голосовать в опросах
Вы не можете прикреплять файлы к сообщениям
Вы не можете скачивать файлы

!ВНИМАНИЕ!
Сайт не предоставляет электронные версии произведений, а занимается лишь коллекционированием и каталогизацией ссылок, присылаемых и публикуемых на форуме нашими читателями. Если вы являетесь правообладателем какого-либо представленного материала и не желаете, чтобы ссылка на него находилась в нашем каталоге, свяжитесь с нами, и мы незамедлительно удалим ее. Файлы для обмена на трекере предоставлены пользователями сайта, и администрация не несет ответственности за их содержание. Просьба не заливать файлы, защищенные авторскими правами, а также файлы нелегального содержания!