[ Сегодня идет свободное скачивание без начисления Download ]


Статистика раздачи
Нет
 
   
 
Top  
 
 
Питер Пэн
Жанр: Детский, приключения
Год выпуска: 1987
Продолжительность: 01:09:23 + 01:09:42
Режиссёр: Леонид Нечаев
В ролях: Сергей Власов, Елена Попкова, Денис Зайцев, Евгений Булат, Александр Трофимов, Лембит Ульфсак, Наталья Прошунина, Максим Турчак, Анатолий Рудаков, Георгий Штиль, Александр Назаров, Александр Денисов
Описание: Музыкальный фильм по мотивам сказочной повести английского писателя Джеймса Барри ""Питер Пэн и Венди"". Далеко-далеко (второй поворот направо, а потом прямо до самого утра), в море находится остров Нетинебудет, где живут потерянные мальчишки, возглавляемые Питером Пэном. Остров чудес, где есть все, о чем может только мечтать маленькие сорванцы: горы и море, индейцы, русалки, пираты, настоящие друзья и настоящие враги.
Доп. информация: Местами на видео баннер - Дед Мороз ...

Телетрансляция спутникового канала "Карусель".
Качество видео: DVB
Формат видео: MPEG-PS
Видео: MPEG2 Video, 720x576 (4:3), 25 fps, 3600 kbps
Аудио: MPEG Audio, 2 сh, 48 kHz, 192 kbps

MediaInfo

1 серия

General
Complete name : D:\Питер Пэн (1987)\1с. Питер Пэн. (1987)_DVB by SLuMeP.mpg
Format : MPEG-PS
File size : 1.87 GiB
Duration : 1h 9mn
Overall bit rate : 3 867 Kbps
Writing library : (c) 1998-2010 Womble Multimedia, Inc. / MPEG Video Wizard DVD 5.0.0.114 (01/2010) / Apr 20 2010
Video
ID : 224 (0xE0)
Format : MPEG Video
Format version : Version 2
Format profile : Main@Main
Format settings, BVOP : Yes
Format settings, Matrix : Default
Duration : 1h 9mn
Bit rate mode : Variable
Bit rate : 3 598 Kbps
Nominal bit rate : 5 000 Kbps
Width : 720 pixels
Height : 576 pixels
Display aspect ratio : 4:3
Frame rate : 25.000 fps
Standard : PAL
Color space : YUV
Chroma subsampling : 4:2:0
Bit depth : 8 bits
Scan type : Interlaced
Scan order : Top Field First
Bits/(Pixel*Frame) : 0.347
Stream size : 1.74 GiB (93%)
Writing library : (c) 1998-2010 Womble Multimedia, Inc. / MPEG Video Wizard DVD 5.0.0.114 (01/2010) / Apr 20 2010
Audio
ID : 192 (0xC0)
Format : MPEG Audio
Format version : Version 1
Format profile : Layer 2
Duration : 1h 9mn
Bit rate mode : Constant
Bit rate : 192 Kbps
Channel(s) : 2 channels
Sampling rate : 48.0 KHz
Video delay : -80ms
Stream size : 95.3 MiB (5%)

2 серия

General
Complete name : D:\Питер Пэн (1987)\2с. Питер Пэн. (1987)_DVB by SLuMeP.mpg
Format : MPEG-PS
File size : 1.85 GiB
Duration : 1h 9mn
Overall bit rate : 3 807 Kbps
Writing library : (c) 1998-2010 Womble Multimedia, Inc. / MPEG Video Wizard DVD 5.0.0.114 (01/2010) / Apr 20 2010
Video
ID : 224 (0xE0)
Format : MPEG Video
Format version : Version 2
Format profile : Main@Main
Format settings, BVOP : Yes
Format settings, Matrix : Default
Format settings, GOP : M=3, N=12
Duration : 1h 9mn
Bit rate mode : Variable
Bit rate : 3 539 Kbps
Nominal bit rate : 5 000 Kbps
Width : 720 pixels
Height : 576 pixels
Display aspect ratio : 4:3
Frame rate : 25.000 fps
Standard : PAL
Color space : YUV
Chroma subsampling : 4:2:0
Bit depth : 8 bits
Scan type : Interlaced
Scan order : Top Field First
Bits/(Pixel*Frame) : 0.341
Stream size : 1.72 GiB (93%)
Writing library : (c) 1998-2010 Womble Multimedia, Inc. / MPEG Video Wizard DVD 5.0.0.114 (01/2010) / Apr 20 2010
Audio
ID : 192 (0xC0)
Format : MPEG Audio
Format version : Version 1
Format profile : Layer 2
Duration : 1h 9mn
Bit rate mode : Constant
Bit rate : 192 Kbps
Channel(s) : 2 channels
Sampling rate : 48.0 KHz
Stream size : 95.7 MiB (5%)

Скриншоты

[Цитировать]



Показать сообщения:    

Текущее время: 11-Дек 14:58

Часовой пояс: UTC + 3


Вы не можете начинать темы
Вы не можете отвечать на сообщения
Вы не можете редактировать свои сообщения
Вы не можете удалять свои сообщения
Вы не можете голосовать в опросах
Вы не можете прикреплять файлы к сообщениям
Вы не можете скачивать файлы

!ВНИМАНИЕ!
Сайт не предоставляет электронные версии произведений, а занимается лишь коллекционированием и каталогизацией ссылок, присылаемых и публикуемых на форуме нашими читателями. Если вы являетесь правообладателем какого-либо представленного материала и не желаете, чтобы ссылка на него находилась в нашем каталоге, свяжитесь с нами, и мы незамедлительно удалим ее. Файлы для обмена на трекере предоставлены пользователями сайта, и администрация не несет ответственности за их содержание. Просьба не заливать файлы, защищенные авторскими правами, а также файлы нелегального содержания!