[ Today is free to download without increasing Download ]

DL-List and Torrent activity
Новогодние приключения Маши и Вити
Жанр: сказка, музыкальный
Год выпуска: 1975
Продолжительность: 01:06:41
Режиссёр: Игорь Усов
В ролях: Юра Нахратов, Наташа Симонова, Игорь Ефимов, Ирина Борисова, Георгий Штиль, Вера Титова, Михаил Боярский, Николай Боярский (вокал - Виктор Кривонос), Валентина Кособуцкая, Любовь Виролайнен, Борис Смолкин
Описание: Новогодний праздничный музыкальный фильм для детей по мотивам русских народных сказок с участием Бабы-Яги, Лешего, Кота Матвея и Кащея Бессмертного.
Доп. информация: Огромная благодарность коллеге за предоставление записи.

Телетрансляция спутникового канала
Семпл: http://multi-up.com/816772
Качество видео: DVB
Формат видео: MPEG-PS
Видео: MPEG2 Video, 720x576, 25 fps, 5300 kbps
Аудио: MPEG Audio, 2 сh, 48 KHz, 256 kbps


Complete name : O:\Новогодние приключения Маши и Вити. (1975)_(Россия К).mpg
Format : MPEG-PS
File size : 2.65 GiB
Duration : 1h 6mn
Overall bit rate : 5 692 Kbps
ID : 224 (0xE0)
Format : MPEG Video
Format version : Version 2
Format profile : Main@Main
Format settings, BVOP : Yes
Format settings, Matrix : Default
Duration : 1h 6mn
Bit rate mode : Variable
Bit rate : 5 323 Kbps
Nominal bit rate : 15.0 Mbps
Width : 720 pixels
Height : 576 pixels
Display aspect ratio : 4:3
Frame rate : 25.000 fps
Standard : PAL
Color space : YUV
Chroma subsampling : 4:2:0
Bit depth : 8 bits
Scan type : Interlaced
Scan order : Top Field First
Bits/(Pixel*Frame) : 0.513
Stream size : 2.48 GiB (94%)
ID : 192 (0xC0)
Format : MPEG Audio
Format version : Version 1
Format profile : Layer 2
Duration : 1h 6mn
Bit rate mode : Constant
Bit rate : 256 Kbps
Channel(s) : 2 channels
Sampling rate : 48.0 KHz
Stream size : 122 MiB (4%)



Display posts:    

Current time is: 25-Oct 20:22

All times are UTC + 3

You cannot post new topics in this forum
You cannot reply to topics in this forum
You cannot edit your posts in this forum
You cannot delete your posts in this forum
You cannot vote in polls in this forum
You cannot attach files in this forum
You cannot download files in this forum

The site does not give electronic versions of products, and is engaged only in a collecting and cataloguing of the references sent and published at a forum by our readers. If you are the legal owner of any submitted material and do not wish that the reference to it was in our catalogue, contact us and we shall immediately remove her. Files for an exchange on tracker are given by users of a site, and the administration does not bear the responsibility for their maintenance. The request to not fill in the files protected by copyrights, and also files of the illegal maintenance!