[ Сегодня идет свободное скачивание без начисления Download ]


Статистика раздачи
Нет
 
   
 
Top  
 
 
Новогодние приключения Маши и Вити
Жанр: сказка, музыкальный
Год выпуска: 1975
Продолжительность: 01:06:41
Режиссёр: Игорь Усов
В ролях: Юра Нахратов, Наташа Симонова, Игорь Ефимов, Ирина Борисова, Георгий Штиль, Вера Титова, Михаил Боярский, Николай Боярский (вокал - Виктор Кривонос), Валентина Кособуцкая, Любовь Виролайнен, Борис Смолкин
Описание: Новогодний праздничный музыкальный фильм для детей по мотивам русских народных сказок с участием Бабы-Яги, Лешего, Кота Матвея и Кащея Бессмертного.
Доп. информация: Огромная благодарность коллеге за предоставление записи.

Телетрансляция спутникового канала
Семпл: http://multi-up.com/816772
Качество видео: DVB
Формат видео: MPEG-PS
Видео: MPEG2 Video, 720x576, 25 fps, 5300 kbps
Аудио: MPEG Audio, 2 сh, 48 KHz, 256 kbps

MediaInfo

General
Complete name : O:\Новогодние приключения Маши и Вити. (1975)_(Россия К).mpg
Format : MPEG-PS
File size : 2.65 GiB
Duration : 1h 6mn
Overall bit rate : 5 692 Kbps
Video
ID : 224 (0xE0)
Format : MPEG Video
Format version : Version 2
Format profile : Main@Main
Format settings, BVOP : Yes
Format settings, Matrix : Default
Duration : 1h 6mn
Bit rate mode : Variable
Bit rate : 5 323 Kbps
Nominal bit rate : 15.0 Mbps
Width : 720 pixels
Height : 576 pixels
Display aspect ratio : 4:3
Frame rate : 25.000 fps
Standard : PAL
Color space : YUV
Chroma subsampling : 4:2:0
Bit depth : 8 bits
Scan type : Interlaced
Scan order : Top Field First
Bits/(Pixel*Frame) : 0.513
Stream size : 2.48 GiB (94%)
Audio
ID : 192 (0xC0)
Format : MPEG Audio
Format version : Version 1
Format profile : Layer 2
Duration : 1h 6mn
Bit rate mode : Constant
Bit rate : 256 Kbps
Channel(s) : 2 channels
Sampling rate : 48.0 KHz
Stream size : 122 MiB (4%)

Скриншоты

[Цитировать]



Показать сообщения:    

Текущее время: 08-Дек 21:16

Часовой пояс: UTC + 3


Вы не можете начинать темы
Вы не можете отвечать на сообщения
Вы не можете редактировать свои сообщения
Вы не можете удалять свои сообщения
Вы не можете голосовать в опросах
Вы не можете прикреплять файлы к сообщениям
Вы не можете скачивать файлы

!ВНИМАНИЕ!
Сайт не предоставляет электронные версии произведений, а занимается лишь коллекционированием и каталогизацией ссылок, присылаемых и публикуемых на форуме нашими читателями. Если вы являетесь правообладателем какого-либо представленного материала и не желаете, чтобы ссылка на него находилась в нашем каталоге, свяжитесь с нами, и мы незамедлительно удалим ее. Файлы для обмена на трекере предоставлены пользователями сайта, и администрация не несет ответственности за их содержание. Просьба не заливать файлы, защищенные авторскими правами, а также файлы нелегального содержания!