[ Сегодня идет свободное скачивание без начисления Download ]


Статистика раздачи
Нет
 
   
 
Top  
 
 
Мои каникулы
Жанр: комедия, короткометражный
Год выпуска: 1973
Продолжительность: 00:22:57
Режиссёр: Ираклий Асатиани
В ролях: Шалва Херхеулидзе, Михаил Кинцурашвили, Лео Сохашвили, Леомер Гугушвили, Иванэ (Вано) Сакварелидзе
Описание: Приключения подростка, который приехал из города на летние каникулы в деревню.
Доп. информация: Запись потока *.ts со спутника EUTELSAT, ремукс в *.mpg программой VideoReDo.
Качество видео: DVB
Формат видео: MPEG-PS
Видео: MPEG2 Video, 720x576 (4:3), 25,000 кадров/сек, 3425 Кбит/сек
Аудио: MPEG Audio, 48,0 КГц, 192 Кбит/сек, 2 канала

MediaInfo

Общее
Полное имя : D:\Torrent\Мои каникулы\Мои каникулы (Дом Кино).mpg
Формат : MPEG-PS
Размер файла : 606 Мбайт
Продолжительность : 22 м.
Режим общего битрейта : Переменный
Общий поток : 3690 Кбит/сек
Видео
Идентификатор : 224 (0xE0)
Формат : MPEG Video
Версия формата : Version 2
Профиль формата : Main@Main
Параметр BVOP формата : Да
Параметр матрицы формата : Выборочная
Продолжительность : 22 м.
Вид битрейта : Переменный
Битрейт : 3425 Кбит/сек
Максимальный битрейт : 5000 Кбит/сек
Ширина : 720 пикселей
Высота : 576 пикселей
Соотношение сторон : 4:3
Частота кадров : 25,000 кадров/сек
Стандарт вещания : PAL
Цветовое пространство : YUV
Субдискретизация насыщенности : 4:2:0
Битовая глубина : 8 бит
Тип развёртки : Чересстрочная
Порядок развёртки : Верхнее поле первое
Метод сжатия : С потерями
Бит/(Пиксели*Кадры) : 0.330
Размер потока : 562 Мбайт (93%)
Аудио
Идентификатор : 192 (0xC0)
Формат : MPEG Audio
Версия формата : Version 1
Профиль формата : Layer 2
Продолжительность : 22 м.
Вид битрейта : Постоянный
Битрейт : 192 Кбит/сек
Каналы : 2 канала
Частота : 48,0 КГц
Метод сжатия : С потерями
Размер потока : 31,5 Мбайт (5%)

[Цитировать]



Показать сообщения:    

Текущее время: 10-Дек 02:15

Часовой пояс: UTC + 3


Вы не можете начинать темы
Вы не можете отвечать на сообщения
Вы не можете редактировать свои сообщения
Вы не можете удалять свои сообщения
Вы не можете голосовать в опросах
Вы не можете прикреплять файлы к сообщениям
Вы не можете скачивать файлы

!ВНИМАНИЕ!
Сайт не предоставляет электронные версии произведений, а занимается лишь коллекционированием и каталогизацией ссылок, присылаемых и публикуемых на форуме нашими читателями. Если вы являетесь правообладателем какого-либо представленного материала и не желаете, чтобы ссылка на него находилась в нашем каталоге, свяжитесь с нами, и мы незамедлительно удалим ее. Файлы для обмена на трекере предоставлены пользователями сайта, и администрация не несет ответственности за их содержание. Просьба не заливать файлы, защищенные авторскими правами, а также файлы нелегального содержания!