[ Сегодня идет свободное скачивание без начисления Download ]


Статистика раздачи
Нет
 
   
 
Top  
 
 
Кешка и борода- -Жанр: комедия, короткометражный
Год выпуска: 1993
Продолжительность: 0:17:12-Режиссёр: Борис Берзнер-В ролях: Иннокентий Сичкарь (Кешка), Артём Усов (Генка), Анатолий Ахрамович (Димка), Юрий Казючиц (Тича), Ираклий Перулава, Юрий Беркун, Андрей Кашкер, Игорь Смушкевич, Евгений Крыжановский-Описание: Удрученный перспективой исполнять роль старика в школьном спектакле в бороде из мочалы, Кешка решается испробовать дедушкино средство от облысения и просыпается утром с настоящей бородой. Отыграв спектакль, мальчик пытается избавиться от этого «украшения»...-Доп. информация:
1. - 1991
2. - 1991
3. - 1991
4. - 1992
5. - 1992
6. "Кешка и гуманоид" - 1993
7. "Кешка и террористы" - 1993
8. "Кешка и бизнес" - 1993
9. - 1993->>>SAMPLE<<<-Качество видео: VHSRip
Формат видео: AVI
Видео: 720x540 (4:3), 25 fps, XviD 73, 2375 kbps, 0.244 bit\pixel
Аудио: АС3, 48 KHz, 192 kbps, 2.0 (dual mono)-

MediaInfo

G:\РЕЛИЗЫ\Кешка\Кешка и борода 1993 VHSRip [AleXounDirector].avi
General
Complete name : G:\РЕЛИЗЫ\Кешка\Кешка и борода 1993 VHSRip [AleXounDirector].avi
Format : AVI
Format/Info : Audio Video Interleave
File size : 317 MiB
Duration : 17mn 12s
Overall bit rate : 2 577 Kbps
Writing library : VirtualDub build 32661/release
Video #0
ID : 0
Format : MPEG-4 Visual
Format profile : Advanced Simple@L5
Format settings, BVOP : 1
Format settings, QPel : No
Format settings, GMC : No warppoints
Format settings, Matrix : Default (MPEG)
Muxing mode : Packed bitstream
Codec ID : XVID
Codec ID/Hint : XviD
Duration : 17mn 12s
Bit rate : 2 375 Kbps
Width : 720 pixels
Height : 540 pixels
Display aspect ratio : 4:3
Frame rate : 25.000 fps
Color space : YUV
Chroma subsampling : 4:2:0
Bit depth : 8 bits
Scan type : Progressive
Compression mode : Lossy
Bits/(Pixel*Frame) : 0.244
Stream size : 292 MiB (92%)
Writing library : XviD 73
Audio #1
ID : 1
Format : AC-3
Format/Info : Audio Coding 3
Mode extension : CM (complete main)
Codec ID : 2000
Duration : 17mn 12s
Bit rate mode : Constant
Bit rate : 192 Kbps
Channel(s) : 2 channels
Channel positions : Front: L R
Sampling rate : 48.0 KHz
Bit depth : 16 bits
Compression mode : Lossy
Stream size : 23.6 MiB (7%)
Alignment : Aligned on interleaves
Interleave, duration : 40 ms (1.00 video frame)
Interleave, preload duration : 512 ms

Скриншот c названием фильма

-

[Цитировать]



Показать сообщения:    

Текущее время: 11-Дек 10:56

Часовой пояс: UTC + 3


Вы не можете начинать темы
Вы не можете отвечать на сообщения
Вы не можете редактировать свои сообщения
Вы не можете удалять свои сообщения
Вы не можете голосовать в опросах
Вы не можете прикреплять файлы к сообщениям
Вы не можете скачивать файлы

!ВНИМАНИЕ!
Сайт не предоставляет электронные версии произведений, а занимается лишь коллекционированием и каталогизацией ссылок, присылаемых и публикуемых на форуме нашими читателями. Если вы являетесь правообладателем какого-либо представленного материала и не желаете, чтобы ссылка на него находилась в нашем каталоге, свяжитесь с нами, и мы незамедлительно удалим ее. Файлы для обмена на трекере предоставлены пользователями сайта, и администрация не несет ответственности за их содержание. Просьба не заливать файлы, защищенные авторскими правами, а также файлы нелегального содержания!