[ Today is free to download without increasing Download ]

DL-List and Torrent activity
А к нам цирк приехал
Жанр: киноповесть, короткометражный
Год выпуска: 1978
Продолжительность: 00:22:37
Режиссёр: Анатолий Резников
В ролях: Павел Степанов, Мод Оже, Ольга Рябцева, Глеб Стриженов, Нина Зайцева, Ира Гоменюк
Описание: О сложных взаимоотношениях двух подростков в школе - Лукашова, стремящегося быть лидером класса, и приехавшего в город с цирком "Шапито" Саши Александрова.
Доп. информация: Запись потока *.ts со спутника EUTELSAT, ремукс в *.mpg программой VideoReDo.
Качество видео: DVB
Формат видео: MPEG-PS
Видео: MPEG Video, 720x576 (4 : 3), 25,000 кадров/сек, 3458 Кбит/сек
Аудио: MPEG Audio, 48,0 КГц, 192 Кбит/сек, 2 канала


Полное имя : E:\Torrent\А К НАМ ЦИРК ПРИЕХАЛ\А К НАМ ЦИРК ПРИЕХАЛ (Дом Кино).mpg
Формат : MPEG-PS
Размер файла : 602 Мбайт
Продолжительность : 22 м.
Режим общего битрейта : Переменный
Общий поток : 3725 Кбит/сек
Идентификатор : 224 (0xE0)
Формат : MPEG Video
Версия формата : Version 2
Профиль формата : Main@Main
Параметр BVOP формата : Да
Параметр матрицы формата : Выборочная
Параметр GOP формата : M=3, N=12
Продолжительность : 22 м.
Вид битрейта : Переменный
Битрейт : 3458 Кбит/сек
Максимальный битрейт : 5000 Кбит/сек
Ширина : 720 пикселей
Высота : 576 пикселей
Соотношение сторон : 4:3
Частота кадров : 25,000 кадров/сек
Стандарт вещания : PAL
Цветовое пространство : YUV
Субдискретизация насыщенности : 4:2:0
Битовая глубина : 8 бит
Тип развёртки : Чересстрочная
Порядок развёртки : Верхнее поле первое
Метод сжатия : С потерями
Бит/(Пиксели*Кадры) : 0.334
Размер потока : 559 Мбайт (93%)
Идентификатор : 192 (0xC0)
Формат : MPEG Audio
Версия формата : Version 1
Профиль формата : Layer 2
Продолжительность : 22 м.
Вид битрейта : Постоянный
Битрейт : 192 Кбит/сек
Каналы : 2 канала
Частота : 48,0 КГц
Метод сжатия : С потерями
Размер потока : 31,1 Мбайт (5%)



Display posts:    

Current time is: 24-Oct 11:48

All times are UTC + 3

You cannot post new topics in this forum
You cannot reply to topics in this forum
You cannot edit your posts in this forum
You cannot delete your posts in this forum
You cannot vote in polls in this forum
You cannot attach files in this forum
You cannot download files in this forum

The site does not give electronic versions of products, and is engaged only in a collecting and cataloguing of the references sent and published at a forum by our readers. If you are the legal owner of any submitted material and do not wish that the reference to it was in our catalogue, contact us and we shall immediately remove her. Files for an exchange on tracker are given by users of a site, and the administration does not bear the responsibility for their maintenance. The request to not fill in the files protected by copyrights, and also files of the illegal maintenance!