[ Сегодня идет свободное скачивание без начисления Download ]


Статистика раздачи
Нет
 
   
 
Top  
 
 
Не покидай (2 серии)
«И ощутивший этот запах солгать не сможет никогда...»- Жанр: музыкальный, сказка
Год выпуска: 1989
Продолжительность: 01:09:47 + 01:10:04-Режиссёр: Леонид Нечаев
В ролях: Вячеслав Невинный (король Теодор), Лидия Федосеева-Шукшина (королева Флора), Варвара Владимирова (принцесса Альбина, озвучание - Ольга Машная), Игорь Красавин (Патрик, озвучание и вокал - Анатолий Тукиш), Светлана Селезнева (Марселла), Регина Разума (Оттилия, супруга канцлера), Альберт Филозов (канцлер, граф Давиль), Артем Тынкасов (принц Пенапью), Елена Антонова (Марта, озвучание - Елена Цыплакова), Владимир Ставицкий (Жак, озвучание - Борис Шувалов), Анатолий Рудаков (Удилак, озвучание - Виктор Борцов), Юрий Багинян (лысый лакей, озвучание - Леонид Нечаев), Валентин Букин (хозяин таверны, озвучание - Михаил Кокшенов), Леонид Нечаев (точильщик ножей), Ростислав Рахт (шарманщик с попугаем, озвучание - Игорь Ясулович), Евгений Герчаков, Сергей Дрейден
Описание: В результате заговора прежние король и королева в одной сказочной стране погибли на охоте, и на троне оказался любитель лошадей и глуповатый солдафон - король Теодор, а правит страной коварный канцлер, граф Давиль, со своей женой Оттилией. В стране настали тяжелые времена: искусство в опале, тюрьмы полны, процветают торгаши и серость. У короля и королевы есть дочь - в принципе добрая, но сильно избалованная принцесса Альбина, в которую влюблен благородный немой поэт Патрик, воспитанник королевы. В королевский замок случайно попадает сундук бродячих музыкантов, где служанка находит волшебную голубую розу, заставляющая всех говорить правду. И наружу выходят секреты, о которых 16 лет запрещалось говорить под страхом смерти...-Доп. информация:

Знаете ли вы, что...

  • Фильм по мотивам сказки Уильяма Теккерея «Кольцо и роза, или История принца Обалду и принца Перекориля».
-Качество видео: [Спасибо Cheef mate]
Формат видео: AVI
Видео: XviD, 640x480 (4:3), 25 fps, ~1352 kbps, 0.176 bpp
Аудио: MP3, 48 kHz, 2 ch, 128 kbps-

MediaInfo

Complete name : J:\torrents\Не покидай (1989) SATRip\Не покидай. Часть 1 [rutracker.org].avi
Format : AVI
Format/Info : Audio Video Interleave
File size : 744 MiB
Duration : 1h 9mn
Overall bit rate : 1 491 Kbps
Writing application : VirtualDubMod 1.5.10.3 (build 2550/release)
Writing library : VirtualDubMod build 2550/release
Video
ID : 0
Format : MPEG-4 Visual
Format profile : Advanced [email protected]
Format settings, BVOP : 1
Format settings, QPel : No
Format settings, GMC : No warppoints
Format settings, Matrix : Custom
Codec ID : XVID
Codec ID/Hint : XviD
Duration : 1h 9mn
Bit rate : 1 353 Kbps
Width : 640 pixels
Height : 480 pixels
Display aspect ratio : 4:3
Frame rate : 25.000 fps
Color space : YUV
Chroma subsampling : 4:2:0
Bit depth : 8 bits
Scan type : Progressive
Compression mode : Lossy
Bits/(Pixel*Frame) : 0.176
Stream size : 675 MiB (91%)
Writing library : XviD 65
Audio
ID : 1
Format : MPEG Audio
Format version : Version 1
Format profile : Layer 3
Mode : Joint stereo
Mode extension : MS Stereo
Codec ID : 55
Codec ID/Hint : MP3
Duration : 1h 9mn
Bit rate mode : Constant
Bit rate : 128 Kbps
Channel(s) : 2 channels
Sampling rate : 48.0 KHz
Compression mode : Lossy
Stream size : 63.9 MiB (9%)
Alignment : Aligned on interleaves
Interleave, duration : 40 ms (1.00 video frame)
Interleave, preload duration : 504 ms
Writing library : LAME3.99r
Encoding settings : -m j -V 4 -q 0 -lowpass 17 -b 128

Скриншоты

Built with Flash Release

[Цитировать]



Показать сообщения:    

Текущее время: 04-Дек 07:01

Часовой пояс: UTC + 3


Вы не можете начинать темы
Вы не можете отвечать на сообщения
Вы не можете редактировать свои сообщения
Вы не можете удалять свои сообщения
Вы не можете голосовать в опросах
Вы не можете прикреплять файлы к сообщениям
Вы не можете скачивать файлы

!ВНИМАНИЕ!
Сайт не предоставляет электронные версии произведений, а занимается лишь коллекционированием и каталогизацией ссылок, присылаемых и публикуемых на форуме нашими читателями. Если вы являетесь правообладателем какого-либо представленного материала и не желаете, чтобы ссылка на него находилась в нашем каталоге, свяжитесь с нами, и мы незамедлительно удалим ее. Файлы для обмена на трекере предоставлены пользователями сайта, и администрация не несет ответственности за их содержание. Просьба не заливать файлы, защищенные авторскими правами, а также файлы нелегального содержания!