[ Сегодня идет свободное скачивание без начисления Download ]


Статистика раздачи
Нет
 
   
 
Top  
 
 
Сказка о звездном мальчике (2 серии)- Жанр: драма, сказка
Год выпуска: 1983
Продолжительность: 01:04:55 + 01:03:11-Режиссёр: Леонид Нечаев
В ролях: Павел Чернышёв (Звездный мальчик), Гражина Байкштите (мать Звездного мальчика), Ростислав Янковский (хозяин созвездия), Владимир Шелестов, Иван Мацкевич (егерь), Матлюба Алимова (ясновидящая и цыганка), Борис Плотников (психолог), Людмила Зайцева, Дмитрий Волков (мальчик), Ангелина Полянчукова (Эля), Лариса Пономаренко (Инфанта), Ваня Пчелкин (мальчик-карлик), Игорь Сысоев (мальчик-художник), Михаил Петров (умелец), Виктор Шевелевич (Великий инквизитор), Виталий Щенников (бродячий артист), Людмила Зайцева (крестьянка)
Описание: Когда-то на Землю упала звезда. Тогда и появился на нашей планете Звездный мальчик. Ловкий и умный, он был жестоким и холодным. Свою мать, которая долгие годы искала его, он оттолкнул и обидел. Но сказка есть сказка, и судьба даст ему шанс исправить ошибки...- -Качество видео: [Спасибо Cheef mate]
Формат видео: AVI
Видео: XviD, 640x480 (4:3), 25 fps, ~1472 kbps, 0.192 bpp
Аудио: MP3, 48 kHz, 2 ch, 128 kbps
-

MediaInfo

General
Complete name : J:\torrents\Сказка о Звёздном мальчике (1983) SATRip\Сказка о Звёздном мальчике. Часть 1 [rutracker.org].avi
Format : AVI
Format/Info : Audio Video Interleave
File size : 748 MiB
Duration : 1h 4mn
Overall bit rate : 1 610 Kbps
Writing application : VirtualDubMod 1.5.10.3 (build 2550/release)
Writing library : VirtualDubMod build 2550/release
Video
ID : 0
Format : MPEG-4 Visual
Format profile : Advanced [email protected]
Format settings, BVOP : 1
Format settings, QPel : No
Format settings, GMC : No warppoints
Format settings, Matrix : Custom
Codec ID : XVID
Codec ID/Hint : XviD
Duration : 1h 4mn
Bit rate : 1 472 Kbps
Width : 640 pixels
Height : 480 pixels
Display aspect ratio : 4:3
Frame rate : 25.000 fps
Color space : YUV
Chroma subsampling : 4:2:0
Bit depth : 8 bits
Scan type : Progressive
Compression mode : Lossy
Bits/(Pixel*Frame) : 0.192
Stream size : 684 MiB (91%)
Writing library : XviD 65
Audio
ID : 1
Format : MPEG Audio
Format version : Version 1
Format profile : Layer 3
Mode : Joint stereo
Mode extension : MS Stereo
Codec ID : 55
Codec ID/Hint : MP3
Duration : 1h 4mn
Bit rate mode : Constant
Bit rate : 128 Kbps
Channel(s) : 2 channels
Sampling rate : 48.0 KHz
Compression mode : Lossy
Stream size : 59.4 MiB (8%)
Alignment : Aligned on interleaves
Interleave, duration : 40 ms (1.00 video frame)
Interleave, preload duration : 504 ms
Writing library : LAME3.99r
Encoding settings : -m j -V 4 -q 0 -lowpass 17 -b 128

Скриншоты

-Built with Flash Release

[Цитировать]



Показать сообщения:    

Текущее время: 05-Дек 05:30

Часовой пояс: UTC + 3


Вы не можете начинать темы
Вы не можете отвечать на сообщения
Вы не можете редактировать свои сообщения
Вы не можете удалять свои сообщения
Вы не можете голосовать в опросах
Вы не можете прикреплять файлы к сообщениям
Вы не можете скачивать файлы

!ВНИМАНИЕ!
Сайт не предоставляет электронные версии произведений, а занимается лишь коллекционированием и каталогизацией ссылок, присылаемых и публикуемых на форуме нашими читателями. Если вы являетесь правообладателем какого-либо представленного материала и не желаете, чтобы ссылка на него находилась в нашем каталоге, свяжитесь с нами, и мы незамедлительно удалим ее. Файлы для обмена на трекере предоставлены пользователями сайта, и администрация не несет ответственности за их содержание. Просьба не заливать файлы, защищенные авторскими правами, а также файлы нелегального содержания!