[ Сегодня идет свободное скачивание без начисления Download ]


Статистика раздачи
Нет
 
   
 
Top  
 
 
Семь маленьких рассказов о первой любви
Жанр: лирическая киноновелла
Год выпуска: 1981
Продолжительность: 01:03:52
Режиссёр: Георгий Матарадзе
В ролях: Бердия Капианидзе, Дато (Давид) Кублашвили, Гио Иоселиани, Алик Гукарев, Каха Паресишвили, Гия Баларджишвили, Каха Гургенидзе, Михаил Лобжанидзе, Бесик Бачиашвили, Нино Кобаидзе, Ия Вахтангишвили, Натия Коркоташвили, Анна Нижарадзе, Лена Кликунова, Майя Берая, Нино Катландадзе, Марина Кахиани, Натия Мтварелишвили, Вахтанг Матарадзе-Челтиспирели, Нана Кемашвили, Заза Колелишвили
Описание: Семь лирических новелл о первой любви, о возникновении первого наивного и чистого чувства. Герои фильма - подростки, жители провинциального грузинского городка. Это - юные рыцари и их прекрасные дамы, умеющие дружить и любить.
Доп. информация: Запись потока *.ts со спутника EUTELSAT, ремукс в *.mpg программой VideoReDo.
Качество видео: DVB
Формат видео: MPEG-PS
Видео: MPEG2 Video, 720x576 (4:3), 25,000 кадров/сек, 3317 Кбит/сек
Аудио: MPEG Audio, 48,0 КГц, 192 Кбит/сек, 2 канала

MediaInfo

Общее
Полное имя : E:\Torrent\СЕМЬ МАЛЕНЬКИХ РАССКАЗОВ О ПЕРВОЙ ЛЮБВИ\СЕМЬ МАЛЕНЬКИХ РАССКАЗОВ О ПЕРВОЙ ЛЮБВИ (Дом Кино).mpg
Формат : MPEG-PS
Размер файла : 1,60 Гбайт
Продолжительность : 1 ч. 3 м.
Режим общего битрейта : Переменный
Общий поток : 3581 Кбит/сек
Видео
Идентификатор : 224 (0xE0)
Формат : MPEG Video
Версия формата : Version 2
Профиль формата : Main@Main
Параметр BVOP формата : Да
Параметр матрицы формата : Выборочная
Параметр GOP формата : M=3, N=12
Продолжительность : 1 ч. 3 м.
Вид битрейта : Переменный
Битрейт : 3317 Кбит/сек
Максимальный битрейт : 5000 Кбит/сек
Ширина : 720 пикселей
Высота : 576 пикселей
Соотношение сторон : 4:3
Частота кадров : 25,000 кадров/сек
Стандарт вещания : PAL
Цветовое пространство : YUV
Субдискретизация насыщенности : 4:2:0
Битовая глубина : 8 бит
Тип развёртки : Чересстрочная
Порядок развёртки : Верхнее поле первое
Метод сжатия : С потерями
Бит/(Пиксели*Кадры) : 0.320
Размер потока : 1,48 Гбайт (93%)
Аудио
Идентификатор : 192 (0xC0)
Формат : MPEG Audio
Версия формата : Version 1
Профиль формата : Layer 2
Продолжительность : 1 ч. 3 м.
Вид битрейта : Постоянный
Битрейт : 192 Кбит/сек
Каналы : 2 канала
Частота : 48,0 КГц
Метод сжатия : С потерями
Размер потока : 87,7 Мбайт (5%)

Скриншоты

[Цитировать]



Показать сообщения:    

Текущее время: 08-Дек 03:12

Часовой пояс: UTC + 3


Вы не можете начинать темы
Вы не можете отвечать на сообщения
Вы не можете редактировать свои сообщения
Вы не можете удалять свои сообщения
Вы не можете голосовать в опросах
Вы не можете прикреплять файлы к сообщениям
Вы не можете скачивать файлы

!ВНИМАНИЕ!
Сайт не предоставляет электронные версии произведений, а занимается лишь коллекционированием и каталогизацией ссылок, присылаемых и публикуемых на форуме нашими читателями. Если вы являетесь правообладателем какого-либо представленного материала и не желаете, чтобы ссылка на него находилась в нашем каталоге, свяжитесь с нами, и мы незамедлительно удалим ее. Файлы для обмена на трекере предоставлены пользователями сайта, и администрация не несет ответственности за их содержание. Просьба не заливать файлы, защищенные авторскими правами, а также файлы нелегального содержания!