[ Сегодня идет свободное скачивание без начисления Download ]


Статистика раздачи
Нет
 
   
 
Top  
 
 
Летающий корабль
Жанр: сказка
Год выпуска: 1960
Продолжительность: 01:03:23
Режиссёры: Михаил Юферов, Артур Войтецкий
В ролях: Игорь Ершов, Лариса Гордейчик, Ада Роговцева, Роберт Клявин (Визиренко), Владимир Дальский, Павел Шпрингфельд, Людмила Татьянчук, Валентина Калиновская, З. Юрченко, Валентин Грудинин, Сергей Сибель, Дмитрий Гнатюк, Мария Капнист, Клавдия Хабарова
Описание: В приднепровском краю жил богатырь Котигорошко с сестренкой Аленкой. Страшный Змей украл Аленку и унес в свое змеиное царство. Вольные запорожцы выковали меч, дали живой воды и проводили Котигорошко в дальний путь. На летающем корабле прилетел он в змеиное царство...
Доп. информация: По мотивам украинской народной сказки.

Телетрансляция спутникового канала "Карусель"
Качество видео: DVB
Формат видео: MPEG-PS
Видео: MPEG2 Video, 720x576 (4:3), 25 fps, 3400 kbps
Аудио: MPEG Audio, 2 сh, 48 kHz, 192 kbps

MediaInfo

General
Complete name : O:\Летающий корабль. (1960)_DVB by SLuMeP.mpg
Format : MPEG-PS
File size : 1.61 GiB
Duration : 1h 3mn
Overall bit rate : 3 640 Kbps
Writing library : (c) 1998-2010 Womble Multimedia, Inc. / MPEG Video Wizard DVD 5.0.0.114 (01/2010) / Apr 20 2010
Video
ID : 224 (0xE0)
Format : MPEG Video
Format version : Version 2
Format profile : Main@Main
Format settings, BVOP : Yes
Format settings, Matrix : Default
Duration : 1h 3mn
Bit rate mode : Variable
Bit rate : 3 375 Kbps
Nominal bit rate : 5 000 Kbps
Width : 720 pixels
Height : 576 pixels
Display aspect ratio : 4:3
Frame rate : 25.000 fps
Standard : PAL
Color space : YUV
Chroma subsampling : 4:2:0
Bit depth : 8 bits
Scan type : Interlaced
Scan order : Top Field First
Bits/(Pixel*Frame) : 0.326
Stream size : 1.49 GiB (93%)
Writing library : (c) 1998-2010 Womble Multimedia, Inc. / MPEG Video Wizard DVD 5.0.0.114 (01/2010) / Apr 20 2010
Audio
ID : 192 (0xC0)
Format : MPEG Audio
Format version : Version 1
Format profile : Layer 2
Duration : 1h 3mn
Bit rate mode : Constant
Bit rate : 192 Kbps
Channel(s) : 2 channels
Sampling rate : 48.0 KHz
Stream size : 87.0 MiB (5%)

Скриншоты


[Цитировать]



Показать сообщения:    

Текущее время: 11-Дек 12:53

Часовой пояс: UTC + 3


Вы не можете начинать темы
Вы не можете отвечать на сообщения
Вы не можете редактировать свои сообщения
Вы не можете удалять свои сообщения
Вы не можете голосовать в опросах
Вы не можете прикреплять файлы к сообщениям
Вы не можете скачивать файлы

!ВНИМАНИЕ!
Сайт не предоставляет электронные версии произведений, а занимается лишь коллекционированием и каталогизацией ссылок, присылаемых и публикуемых на форуме нашими читателями. Если вы являетесь правообладателем какого-либо представленного материала и не желаете, чтобы ссылка на него находилась в нашем каталоге, свяжитесь с нами, и мы незамедлительно удалим ее. Файлы для обмена на трекере предоставлены пользователями сайта, и администрация не несет ответственности за их содержание. Просьба не заливать файлы, защищенные авторскими правами, а также файлы нелегального содержания!