[ Today is free to download without increasing Download ]

DL-List and Torrent activity
Летающий корабль
Жанр: сказка
Год выпуска: 1960
Продолжительность: 01:03:23
Режиссёры: Михаил Юферов, Артур Войтецкий
В ролях: Игорь Ершов, Лариса Гордейчик, Ада Роговцева, Роберт Клявин (Визиренко), Владимир Дальский, Павел Шпрингфельд, Людмила Татьянчук, Валентина Калиновская, З. Юрченко, Валентин Грудинин, Сергей Сибель, Дмитрий Гнатюк, Мария Капнист, Клавдия Хабарова
Описание: В приднепровском краю жил богатырь Котигорошко с сестренкой Аленкой. Страшный Змей украл Аленку и унес в свое змеиное царство. Вольные запорожцы выковали меч, дали живой воды и проводили Котигорошко в дальний путь. На летающем корабле прилетел он в змеиное царство...
Доп. информация: По мотивам украинской народной сказки.

Телетрансляция спутникового канала "Карусель"
Качество видео: DVB
Формат видео: MPEG-PS
Видео: MPEG2 Video, 720x576 (4:3), 25 fps, 3400 kbps
Аудио: MPEG Audio, 2 сh, 48 kHz, 192 kbps


Complete name : O:\Летающий корабль. (1960)_DVB by SLuMeP.mpg
Format : MPEG-PS
File size : 1.61 GiB
Duration : 1h 3mn
Overall bit rate : 3 640 Kbps
Writing library : (c) 1998-2010 Womble Multimedia, Inc. / MPEG Video Wizard DVD (01/2010) / Apr 20 2010
ID : 224 (0xE0)
Format : MPEG Video
Format version : Version 2
Format profile : Main@Main
Format settings, BVOP : Yes
Format settings, Matrix : Default
Duration : 1h 3mn
Bit rate mode : Variable
Bit rate : 3 375 Kbps
Nominal bit rate : 5 000 Kbps
Width : 720 pixels
Height : 576 pixels
Display aspect ratio : 4:3
Frame rate : 25.000 fps
Standard : PAL
Color space : YUV
Chroma subsampling : 4:2:0
Bit depth : 8 bits
Scan type : Interlaced
Scan order : Top Field First
Bits/(Pixel*Frame) : 0.326
Stream size : 1.49 GiB (93%)
Writing library : (c) 1998-2010 Womble Multimedia, Inc. / MPEG Video Wizard DVD (01/2010) / Apr 20 2010
ID : 192 (0xC0)
Format : MPEG Audio
Format version : Version 1
Format profile : Layer 2
Duration : 1h 3mn
Bit rate mode : Constant
Bit rate : 192 Kbps
Channel(s) : 2 channels
Sampling rate : 48.0 KHz
Stream size : 87.0 MiB (5%)



Display posts:    

Current time is: 22-Oct 16:28

All times are UTC + 3

You cannot post new topics in this forum
You cannot reply to topics in this forum
You cannot edit your posts in this forum
You cannot delete your posts in this forum
You cannot vote in polls in this forum
You cannot attach files in this forum
You cannot download files in this forum

The site does not give electronic versions of products, and is engaged only in a collecting and cataloguing of the references sent and published at a forum by our readers. If you are the legal owner of any submitted material and do not wish that the reference to it was in our catalogue, contact us and we shall immediately remove her. Files for an exchange on tracker are given by users of a site, and the administration does not bear the responsibility for their maintenance. The request to not fill in the files protected by copyrights, and also files of the illegal maintenance!